<?xml version="1.0" standalone="no"?>
<!DOCTYPE svg PUBLIC "-//W3C//DTD SVG 1.1//EN" "http://www.w3.org/Graphics/SVG/1.1/DTD/svg11.dtd" >
<svg>
<metadata>
Created by FontForge 20090622 at Thu Mar 12 13:20:12 2020
 By deploy user
Copyright 2018 The Gaegu Project Authors
</metadata>
<defs>
<font id="Gaegu-Regular" horiz-adv-x="820" >
  <font-face 
    font-family="Gaegu"
    font-weight="400"
    font-stretch="normal"
    units-per-em="1000"
    panose-1="0 0 0 0 0 0 0 0 0 0"
    ascent="760"
    descent="-240"
    x-height="330"
    cap-height="526"
    bbox="-70 -240 880 760"
    underline-thickness="32"
    underline-position="-262"
    unicode-range="U+0020-U+FFE6"
  />
<missing-glyph horiz-adv-x="720" 
 />
    <glyph glyph-name=".notdef" horiz-adv-x="720" 
 />
    <glyph glyph-name="exclam" unicode="!" horiz-adv-x="445" 
d="M284 538q1 -5 1.5 -9t0.5 -8q1 -5 -1.5 -13t-4.5 -18l-12 -50q-2 -2 -4 -11t-4 -19.5t-3 -19l-1 -8.5q1 -5 1 -8.5v-7.5v-8t-1 -8l-4 -20q-6 -26 -6 -49q0 -11 1 -16l-4 -39q-3 -15 -7 -29.5t-15 -14.5q-13 0 -21 8t-12 19.5t-5.5 24.5t-1.5 22q0 10 1 15
q-1 14 -1.5 25.5t-0.5 21.5q0 26 3 37q-1 5 -1.5 10t-0.5 10q0 32 4 61.5t10 53t12 38t9 16.5q9 9 33 9q27 0 35 -15zM263 40q0 -16 -14.5 -25t-26.5 -9q-21 0 -33 5t-18.5 12.5t-8.5 16t-2 16.5q0 18 13 37t34 19q7 0 16.5 -1.5t18.5 -8.5t15 -21.5t6 -40.5z" />
    <glyph glyph-name="quotedbl" unicode="&#x22;" horiz-adv-x="437" 
d="M315 667q1 -10 1.5 -18t0.5 -13q0 -14 -3.5 -39t-5.5 -57l-2 -18q-2 -17 -13.5 -21.5t-19.5 -4.5t-11 3t-4.5 10l-3.5 17t-6 24v7q0 9 -1.5 24t-3.5 30.5t-3.5 29t-1.5 20.5q0 15 11 22t26 7q32 0 40 -23zM195 667q1 -10 1.5 -18t0.5 -13q0 -14 -3.5 -39t-5.5 -57l-2 -18
q-2 -17 -13.5 -21.5t-19.5 -4.5t-11 3t-4.5 10l-3.5 17t-6 24v7q0 9 -1.5 24t-3.5 30.5t-3.5 29t-1.5 20.5q0 15 11 22t26 7q32 0 40 -23z" />
    <glyph glyph-name="numbersign" unicode="#" horiz-adv-x="733" 
d="M621 181q-6 0 -24.5 -1.5t-39.5 -4t-39.5 -4t-24.5 -1.5l9 -160q-7 -31 -35 -31q-12 0 -18.5 8.5t-9.5 22t-4 29.5t-3 30v-1q-1 9 -2 21q-1 10 -1 24.5v31.5v11t1 8q-33 -3 -52 -3q-18 0 -22 2l-70 -7q-1 -26 -1.5 -46.5t-0.5 -37.5q0 -16 0.5 -27t1.5 -17
q-7 -25 -34 -25q-8 0 -15 2t-12 11t-7.5 27.5t-2.5 50.5q0 13 1 26.5t3 28.5q-5 1 -11 1h-13h-19t-21 -2h-18.5t-25 2t-22 8.5t-9.5 19.5q0 14 3.5 19t13 6.5t26.5 2t45 3.5q10 1 23.5 2t30.5 2q1 5 1.5 13t0.5 18q0 19 -2 25v9t1 19l3 37q-14 0 -31.5 -3.5t-40.5 -3.5
q-22 0 -39.5 2t-17.5 23q0 15 7 22t22.5 11t40 7t60.5 9v32q0 14 -1 20.5t0 7.5q0 5 0.5 19.5t3 30t9 27.5t20.5 12q16 0 23.5 -15.5t10 -34.5t2 -35l-0.5 -16q0 -9 -0.5 -18.5t-0.5 -20.5q2 0 3.5 -0.5t3.5 -0.5q6 0 13.5 1t16.5 3l34 6q24 5 55 9q-1 12 -1.5 23t-0.5 22
q0 40 6 96q3 24 27 24q14 0 22.5 -8.5t10.5 -39.5q1 -12 2 -19.5t2 -10.5q-3 -12 -3 -33q0 -9 0.5 -19.5t1.5 -22.5q15 4 26.5 6t20.5 2q8 0 12 -1q33 12 63 12q25 0 25 -27q0 -14 -11.5 -22t-30.5 -13.5t-45 -9t-54 -8.5q-3 -6 -3 -22q0 -17 1 -27.5t2.5 -19.5t2.5 -19.5
t1 -27.5v-16t-1 -17l43 5q12 0 30 -0.5t42 -1.5q21 -2 21 -24q0 -17 -10 -28zM429 224l-4 69q2 4 2 29v20.5t-1 25.5l-31 -7q-23 -5 -31 -5h-7q-15 0 -64 -9v-29t-0.5 -15.5t-1.5 -10t-2 -12.5t-2 -23t-2 -41q27 1 41.5 2.5t24 3t19 2.5t25.5 1h16.5t17.5 -1z" />
    <glyph glyph-name="dollar" unicode="$" horiz-adv-x="669" 
d="M297 487q-23 -5 -39.5 -14t-27.5 -19.5t-16.5 -21.5t-5.5 -19q0 -28 20.5 -49.5t66.5 -34.5q1 12 2 21t3 14q-5 20 -5 61q0 14 0.5 29t1.5 33zM355 60q39 5 62.5 11.5t36 17.5t16.5 29t4 45q0 55 -115 83q1 -14 1 -25v-20q0 -38 -4 -45q1 -8 1.5 -16.5t0.5 -18.5
q0 -27 -3 -61zM549 190v-44q-3 -60 -44 -97t-131 -54q-5 -1 -10 -1h-10v-31t-2.5 -30t-9.5 -23t-21 -9q-13 0 -19.5 8t-9.5 20.5t-3.5 29.5t-0.5 35q-82 3 -136 24l-42 20q-23 11 -36.5 23.5t-13.5 25.5q0 32 31 36l40 -13.5t26.5 -11t18 -11.5t14.5 -13q34 -14 99 -15
q2 27 4.5 55t2.5 53q0 39 -6 72l3 26q-25 6 -42.5 11t-30 10t-23 10.5t-21.5 13.5q-42 67 -42 99q0 22 7 38t19 29t28 25l34 25q14 5 33 9t44 8q1 40 4.5 66t24.5 26q20 0 26.5 -10.5t6.5 -41.5q0 -8 -0.5 -16t-0.5 -17h16q16 0 38.5 -6.5t43.5 -16.5t36 -22t15 -22
q0 -28 -34 -28q-1 0 -18 6l-37.5 13.5l-39 14t-23.5 6.5q1 -87 1 -132.5v-51.5q14 -3 23 -7q153 -54 168 -114z" />
    <glyph glyph-name="percent" unicode="%" horiz-adv-x="762" 
d="M672 152q0 -28 -9.5 -53t-24.5 -44t-33 -30t-35 -11q-45 0 -100 31q-36 25 -52 103q18 96 76 124q1 0 3 -0.5t4 -0.5q6 0 19 1t27.5 2t25.5 2t13 1q13 -2 28 -16.5t27.5 -34.5t21 -40.5t9.5 -33.5zM608 154q-10 54 -60 65q-16 -3 -28 -13t-20.5 -21t-13 -21.5t-4.5 -13.5
q0 -25 30 -62l31 -9.5t18 -3.5h2q46 22 46 64q0 10 -1 15zM560 502q-10 -28 -24.5 -48t-33.5 -42.5l-42.5 -52t-51.5 -74.5q-23 -37 -34 -45q-1 -6 -9.5 -22t-19 -33l-19 -30t-8.5 -14q-10 -24 -34 -60q-29 -68 -66 -81q-32 0 -33 40q1 14 43 82q9 15 15 27.5t15 28.5
t23.5 39t39.5 58q18 26 24 35.5l10.5 16.5l12.5 19.5t30 44.5l26 36.5t15 15.5q3 6 12 21.5t21.5 32t27.5 29.5t29 13q31 0 31 -37zM318 443q0 -57 -36 -111q-5 -3 -16 -7t-23.5 -7.5t-23 -6t-14.5 -2.5q-20 0 -40.5 8.5t-37 22.5t-27 32t-10.5 38q0 46 33 93q25 18 72 39
q65 0 89 -51q23 -13 34 -48zM260 411q0 5 -2 12.5t-5 15t-5 14.5t-2 11q-14 10 -34 10q-9 0 -19.5 -3.5t-19.5 -10t-15 -16t-6 -21.5q0 -8 5.5 -18t13.5 -18t18.5 -13.5t20.5 -5.5q23 0 36.5 13.5t13.5 29.5z" />
    <glyph glyph-name="ampersand" unicode="&#x26;" horiz-adv-x="751" 
d="M649 55q12 -11 12 -26t-8 -23.5t-20 -8.5q-28 3 -60 20.5t-74 63.5l-37 -38t-43.5 -34.5t-55.5 -26t-72 -11.5l-60 11t-25 5q-24 9 -45 23.5t-36.5 34t-25 42.5t-9.5 47q0 19 11.5 49t33 62t53.5 61.5t74 48.5q-5 5 -12 14.5t-12 23.5l-12 33q-3 7 -3 26q0 48 12.5 78
t29.5 47t35.5 23t30.5 6q10 0 30 -6l41 -12q9 -5 18.5 -17t18 -26.5t13.5 -29.5t5 -27q0 -26 -4 -46t-14.5 -37t-29 -33.5t-47.5 -36.5l87 -108l18 -18t26 -28q27 32 40.5 50t22 32t15.5 28.5t22 40.5q9 16 24 16q12 0 21 -10t9 -24q0 -4 -1 -9t-5 -12.5l-10.5 -19
t-17.5 -28.5q-14 -22 -21 -35t-9 -18q-26 -26 -44 -62l33 -32q33 -33 77 -43zM392 484q-2 20 -16.5 38t-40.5 18q-11 0 -20 -6.5t-15 -17t-9.5 -24t-3.5 -26.5q0 -19 9 -45t23 -39q73 31 73 92v10zM452 122q-20 28 -51 57l-36 50q-8 7 -22.5 26l-37.5 50q-27 -10 -51.5 -28
t-43 -40.5t-29 -49t-10.5 -54.5q0 -45 28.5 -70t76.5 -25q27 0 53.5 7t49.5 19t42 27t31 31z" />
    <glyph glyph-name="quotesingle" unicode="'" horiz-adv-x="317" 
d="M195 667q1 -10 1.5 -18t0.5 -13q0 -14 -3.5 -39t-5.5 -57l-2 -18q-2 -17 -13.5 -21.5t-19.5 -4.5t-11 3t-4.5 10l-3.5 17t-6 24v7q0 9 -1.5 24t-3.5 30.5t-3.5 29t-1.5 20.5q0 15 11 22t26 7q32 0 40 -23z" />
    <glyph glyph-name="parenleft" unicode="(" horiz-adv-x="440" 
d="M318 -56q2 -6 2 -9q0 -12 -11.5 -21t-23.5 -9q-8 0 -17 6.5t-18.5 16t-18.5 20t-15 19.5q-36 46 -39 88q-6 5 -13.5 20t-15 34t-13 39.5t-6.5 35.5l-9 143q5 34 16.5 83.5t31 98t47 88t65.5 53.5h5q14 0 23 -8.5t9 -21.5q0 -8 -6 -18.5t-15 -22l-19.5 -24t-19.5 -25.5
q-38 -78 -51.5 -136.5t-13.5 -107.5q0 -2 0.5 -22t3.5 -48.5t10 -61t20 -60.5l11.5 -25t10.5 -20.5t15.5 -24t27.5 -35.5q24 -32 27 -45z" />
    <glyph glyph-name="parenright" unicode=")" horiz-adv-x="440" 
d="M321 219q-4 -27 -15.5 -75.5t-32 -99t-49 -92.5t-67.5 -56q-2 0 -3 -0.5t-3 -0.5q-13 0 -22 9t-9 22q0 9 7 20.5t17 24.5l21.5 27t21.5 28q20 41 32.5 71.5t20 57t10 51.5t2.5 54q0 2 -0.5 22t-3.5 48.5t-10 61t-20 60.5l-11.5 25t-10.5 20.5t-15.5 24t-26.5 34.5
q-19 23 -24.5 36t-5.5 19q0 12 10.5 21t21.5 9q8 0 12 -4q99 -77 105 -146q6 -5 13.5 -20t15 -34t12.5 -39.5t7 -35.5q-1 -14 -1 -29v-33v-38t1 -43z" />
    <glyph glyph-name="asterisk" unicode="*" horiz-adv-x="551" 
d="M427 489q3 -5 3 -10q0 -23 -27 -36q-11 1 -47 26l-49 21q0 -35 0.5 -51t1.5 -24l1.5 -12t0.5 -14q0 -12 -9 -17.5t-20 -5.5t-18 4.5t-10.5 11t-4.5 15t-1 16.5q0 10 3 22v53q-26 -22 -38.5 -37.5l-20 -25t-14 -13.5t-19.5 -4q-23 0 -23 24q0 8 3 19l78 79q-18 15 -79 32
q-18 7 -18 31q0 28 23 28q10 0 23 -4.5t26.5 -10.5t26 -13t22.5 -12q0 63 -12 89q0 17 10.5 28.5t24.5 11.5q17 0 31 -20l-2 -100q27 29 50 51.5t35 22.5q22 0 31 -33q-3 -7 -17 -20t-30.5 -26.5l-30 -25t-16.5 -14.5q13 -4 41 -17.5t71 -38.5z" />
    <glyph glyph-name="plus" unicode="+" horiz-adv-x="620" 
d="M505 267q-5 -6 -22 -10.5t-35 -7.5t-31.5 -4t-11.5 0q-1 0 -14 -1t-33 -1h-8t-7 1q0 -33 0.5 -62t-2 -50.5t-10.5 -34t-26 -12.5q-14 0 -24.5 5.5t-10.5 27.5q0 13 1.5 31.5t5.5 42.5q-1 3 -1 12q0 18 1.5 31t1.5 14q-17 1 -31 1h-28q-47 0 -72 -3q-37 4 -37 35
q0 28 28 28q39 0 58.5 -1.5t32.5 -1.5q11 0 23 0.5t25 1.5q-1 14 -1.5 24.5t-0.5 18.5q0 19 3 24q0 24 -7 65q5 32 35 32q15 0 22 -7t10 -22.5t4 -40.5t3 -61v-36q10 1 24 2t34 3q4 -2 13 -2q13 0 25 1t21.5 2.5t14.5 2.5t4 0q26 -3 26 -31q0 -10 -3 -17z" />
    <glyph glyph-name="comma" unicode="," horiz-adv-x="349" 
d="M226 84q3 -6 3 -19q0 -17 -2 -33t-8.5 -33.5t-19 -38t-33.5 -46.5q-8 -3 -14 -3q-13 0 -16 14q0 3 4.5 12l9.5 19t10 19t6 13q4 16 6 36q-2 -1 -8 -1q-12 0 -28 11.5t-16 40.5l8.5 14.5t10.5 14.5t14.5 11.5t22.5 4.5q30 0 50 -36z" />
    <glyph glyph-name="hyphen" unicode="-" horiz-adv-x="620" 
d="M478 249q-11 -3 -23 -3q-6 0 -15.5 1t-20 2l-21 2t-17.5 1q0 -1 -18.5 0.5t-55.5 1.5q-25 0 -31 -6q-19 -1 -46.5 -3t-63.5 -4q-36 3 -36 31q0 10 2 18t13 13t34.5 8t65.5 4q5 0 11.5 -0.5t14.5 -0.5q40 0 108 3q20 -1 42.5 -3t48.5 -5q19 -15 19 -34q0 -13 -11 -26z" />
    <glyph glyph-name="period" unicode="." horiz-adv-x="343" 
d="M223 30q0 -16 -14.5 -25t-26.5 -9q-21 0 -33 5t-18.5 12.5t-8.5 16t-2 16.5q0 18 13 37t34 19q7 0 16.5 -1.5t18.5 -8.5t15 -21.5t6 -40.5z" />
    <glyph glyph-name="slash" unicode="/" horiz-adv-x="459" 
d="M419 586q-2 -8 -17 -37.5l-37 -70.5l-47.5 -88.5t-46.5 -90.5l-36 -82l-17.5 -36t-11.5 -17q-9 -26 -31.5 -70.5t-51.5 -110.5q-5 -11 -11 -22t-13 -20.5t-14.5 -15.5t-14.5 -6q-25 0 -30 26q6 63 84 194q25 42 40.5 76t23.5 60q17 25 28 48.5t19 43.5t14 37t13 31
q1 2 12 20l31 53l27 56q11 22 25.5 38.5t27.5 16.5t23 -10.5t11 -22.5z" />
    <glyph glyph-name="zero" unicode="0" horiz-adv-x="573" 
d="M473 285q-2 -23 -10 -51.5t-18.5 -57t-23.5 -53.5t-25 -40l-49 -35.5t-31 -18.5t-25 -7t-30 -1q-26 0 -55 12.5t-54 34t-43 50.5t-22 63q-17 51 -17 93q0 53 22.5 97.5t78.5 90.5q25 21 49 32t44.5 16.5t37.5 6t29 0.5q37 0 62.5 -11t41.5 -37.5t25 -71.5t13 -112z
M394 220q15 42 15 87q0 25 -6 52t-16.5 48.5t-26 35.5t-33.5 14q-128 0 -178 -125q-10 -24 -10 -56q0 -25 8 -63l10 -45q47 -83 104 -83q42 0 76 35t57 100z" />
    <glyph glyph-name="one" unicode="1" horiz-adv-x="407" 
d="M256 510v-4q0 -9 -4.5 -35l-10 -55.5l-10 -54t-4.5 -30.5t0.5 -10.5t1.5 -8.5q-4 -7 -4 -36q0 -14 0.5 -29.5t0.5 -26.5t-0.5 -18t-1.5 -12q5 -32 8 -56.5t3 -41.5q0 -20 -10 -35.5t-40 -15.5q-21 0 -27 15l-6 67q2 6 2 17q0 4 -0.5 17.5t-1.5 29t-1.5 30t-0.5 20.5
q0 35 6 46q-4 12 -4 30q0 6 2 20l4 29t4 28t2 18v4l5.5 38t10.5 56q9 30 40 30q34 0 36 -26z" />
    <glyph glyph-name="two" unicode="2" horiz-adv-x="522" 
d="M396 17l-22.5 1.5t-12 0.5h-8.5h-12t-17 -0.5t-19 -0.5q-25 0 -61 12h-22t-26 -1q-11 2 -31 5l-48 7q-17 17 -17 32q0 14 7 29q34 34 51 55t29 37.5l25 33t38 41.5q4 4 11 14l15.5 22.5t17.5 24.5l15 20q31 35 31 79q0 21 -10.5 34t-39.5 13q-51 0 -86 -23.5t-55 -61.5
q-10 -20 -15.5 -30t-9.5 -15t-8 -5.5t-11 -0.5q-13 0 -24 10.5t-11 26.5q0 10 8.5 28.5t21 37t26 33.5t23.5 19q67 39 152 39q30 0 50.5 -9t32.5 -24t17 -35.5t5 -43.5q0 -58 -36 -97q-11 -12 -20 -25l-17 -25.5l-14.5 -22.5t-10.5 -14q-4 -2 -12 -10.5t-18.5 -21.5
t-22 -29.5l-22.5 -32.5q-39 -32 -47 -49q27 -2 66 -6q16 -6 32 -6q11 0 20 3q5 0 11 -0.5t13 -0.5q17 0 37 1t44 1q9 0 16 -12.5t7 -26.5q0 -21 -12 -26t-24 -5z" />
    <glyph glyph-name="three" unicode="3" horiz-adv-x="531" 
d="M360 6q-15 -18 -43.5 -33.5t-62 -27t-67 -18.5t-58.5 -7q-27 0 -38 7t-11 24q0 26 30 29l62 6t21 2q37 8 69 27.5t55 43t36.5 46.5t13.5 37q3 25 3 39q0 44 -21 64t-61 20q-20 0 -93 -16q-25 7 -25 41q3 6 16 13.5l28.5 16l30.5 17t22 16.5q43 46 43 82q0 52 -74 52
q-10 0 -17.5 -0.5t-16.5 -3.5t-21 -10.5t-30 -22.5q-23 -18 -33 -30.5t-15.5 -20t-10.5 -11t-17 -3.5q-30 0 -30 36q0 15 10.5 31.5t28 33t39 31.5t44.5 27q15 5 32.5 7t38.5 2q34 0 60.5 -4.5t44.5 -17t27.5 -36t9.5 -61.5q0 -13 -4.5 -29.5t-18.5 -39.5l-25 -41l39 -15
t24 -11.5t15 -12t13 -15.5q23 -32 23 -77q0 -83 -86 -187z" />
    <glyph glyph-name="four" unicode="4" horiz-adv-x="554" 
d="M503 137q-7 -2 -16.5 -3t-20.5 -1q-14 0 -28 1t-23 1q-7 0 -12 -0.5t-8 -0.5q-1 -10 -4 -31.5t-7 -44.5l-8 -44t-7 -30q-8 -7 -26 -7q-27 0 -31 13q0 22 5 57t15 86q-21 -3 -36 -4t-25 -1q-5 0 -11.5 1t-18 1.5t-29.5 1.5t-45 1q-8 0 -23.5 3t-31.5 7.5t-30 9.5t-20 10
q-2 8 -2 14q0 18 2 27t9.5 23.5l22.5 43t40 87.5l85 131q7 6 18 6q28 0 28 -24q0 -26 -77 -142l-56 -128q7 -15 26 -15q10 0 15.5 1t9 1.5t7.5 1.5t10 1q11 0 23.5 -1.5t27.5 -3.5q24 0 45 1t40 3l2.5 39t5.5 53q-2 9 -2 18.5v19.5q0 20 3.5 41.5t3.5 46.5q0 7 -1 23.5
t-2.5 34t-2.5 31.5t-1 16q6 16 20 16q10 0 16.5 -1t11 -7t7.5 -18.5t7 -36.5l3.5 -30.5t1.5 -23.5q0 -17 -1 -39t-2 -55q1 -5 1 -10.5v-13.5q0 -20 -1 -37.5t-2 -31.5q-1 -16 -2 -30q15 -3 48 -3h11q24 0 38.5 -4t14.5 -25q0 -17 -11 -26z" />
    <glyph glyph-name="five" unicode="5" horiz-adv-x="491" 
d="M380 85q-8 -17 -17 -31.5t-24 -29.5t-37.5 -33t-55.5 -42q-98 -54 -126 -54q-12 0 -14 7t-2 23q0 12 10 21.5t26.5 19t38 20t43.5 22.5q15 2 45 35l44 48q23 38 23 68t-14 53t-34.5 38.5t-45 23.5t-45.5 8q-12 0 -24.5 -2.5t-25.5 -2.5q-4 0 -13 1.5t-18.5 5t-17 9
t-7.5 14.5q0 18 4.5 45.5t10 54.5l10 48t4.5 26v50q-1 0 -1 -15q0 21 7 26.5t23 5.5q20 0 28.5 -2t14.5 -5t13.5 -5t26.5 -2q5 0 7 0.5t6 0.5q3 0 22.5 -2t41 -4.5l39 -4.5t16.5 -2q19 -4 19 -29q0 -28 -24 -29q-13 2 -33 3t-49 1q-5 0 -13.5 1t-18.5 2t-18.5 2t-13.5 1
q-14 0 -21 -5t-11 -15t-5.5 -23.5t-4.5 -29.5q-8 -40 -8 -51q0 -5 1 -6q6 1 12 1h12q22 0 48.5 -4t53 -16t51 -33.5t41.5 -56.5q10 -21 15.5 -38t5.5 -34q0 -29 -21 -78z" />
    <glyph glyph-name="six" unicode="6" horiz-adv-x="482" 
d="M140 246q-4 -20 -4 -43q0 -57 22 -90t67 -33q43 0 77 31q11 24 23.5 46t12.5 39q0 38 -31.5 58.5t-80.5 21.5q-13 0 -86 -30zM399 212q0 -3 0.5 -6.5t0.5 -6.5q0 -14 -2 -25t-7.5 -24t-16 -30l-27.5 -44l-37 -23q-32 -20 -57.5 -24t-42.5 -4q-24 0 -48.5 12t-45 34
t-33.5 54t-13 73q0 5 3 28t8 65q4 16 16 39.5t27.5 50t33.5 53t36 48t33.5 35t26.5 14.5q7 10 24.5 25t37 29.5t36 24.5t22.5 11q28 -9 28 -30q0 -4 -1 -8t-9 -13t-25.5 -24.5t-50.5 -42.5q-8 -5 -19 -13t-24 -20l-39 -37l-37 -50q-16 -21 -25.5 -39t-14.5 -32q10 4 24 7.5
t28 6.5t26.5 4.5t21.5 1.5q12 0 27 -5t29.5 -11t26.5 -11.5t19 -7.5q6 -3 12.5 -12t12 -21t9.5 -25.5t6 -26.5z" />
    <glyph glyph-name="seven" unicode="7" horiz-adv-x="475" 
d="M369 387q-2 -7 -12 -49t-27 -120q-17 -74 -40 -122q0 -1 -4.5 -23t-13 -47.5t-21 -47t-28.5 -21.5q-15 0 -29 11q0 47 12 73q1 7 8 30t21 61q9 52 27 96q0 6 4.5 24.5l9 38.5t8.5 36t4 18q12 66 12 71q-30 11 -99 16l-58 -7q-3 1 -10 1q-8 0 -25 -3.5t-26 -3.5
q-21 0 -31.5 10t-10.5 24t5.5 21.5t15 10.5t22.5 3h27h32q25 6 48 6h10t10 -1q9 1 16.5 1h14.5q14 0 18 -1l34 -10h4q22 0 70 -14q7 -6 7 -24q0 -3 -1 -10.5t-2 -16t-2 -16t-1 -11.5q0 -2 0.5 -2.5t0.5 -1.5z" />
    <glyph glyph-name="eight" unicode="8" horiz-adv-x="543" 
d="M454 124q0 -43 -13.5 -72t-37 -47t-56 -25.5t-71.5 -7.5h-12.5t-12.5 1l-88 34q-31 12 -49.5 26.5t-28 30.5t-12.5 33.5t-3 34.5q0 36 9.5 62t26 47t40 37.5t52.5 33.5q-20 18 -31 33.5t-17 28t-7.5 21t-1.5 11.5q0 43 18 73t45 49.5t60 28.5t63 11q42 -4 71.5 -34
t29.5 -80q0 -7 -3.5 -24t-13.5 -38.5t-28.5 -44.5t-48.5 -42q41 -18 65 -43t36 -51t15.5 -49t3.5 -38zM349 493q-13 10 -34 10q-18 0 -35.5 -5.5t-31 -15.5t-22 -24t-8.5 -32q0 -52 45 -86q11 0 61 32q33 61 33 94q0 16 -8 27zM374 189q-41 62 -105 80q-5 -1 -15.5 -5
t-27.5 -12l-40 -21q-43 -27 -43 -88q0 -11 1.5 -22.5t3.5 -25.5q10 -13 26.5 -24t36.5 -19t42 -12.5t42 -4.5q92 11 92 81q0 20 -13 73z" />
    <glyph glyph-name="nine" unicode="9" horiz-adv-x="514" 
d="M349 356q-1 104 -61 104q-38 0 -105 -52q-2 -3 -9.5 -12t-16 -20.5t-15 -22.5t-6.5 -17q0 -23 20 -35.5t42 -12.5q24 0 61 10q14 3 90 58zM413 291q-2 -47 -16 -95l-22 -70q-11 -74 -33 -104q-3 -17 -13 -40t-22 -44t-23 -35.5t-15 -14.5q-12 0 -22.5 7t-10.5 18
q0 5 7 28.5t32 79.5q4 6 10 21.5t11.5 32l10 30l5.5 16.5l5 16l11.5 37.5t11.5 45t5 38.5q0 3 -0.5 6.5t-0.5 6.5l1 15q-25 -17 -47 -27t-39.5 -15.5t-28.5 -7.5t-14 -2q-12 0 -27.5 -0.5t-32 3.5t-33.5 14t-30 31q-23 35 -23 59q0 9 5.5 21t12 24l12.5 22.5t8 15.5l45 40
q22 20 39 31.5t31 17.5t26.5 8t27.5 2q57 0 92.5 -35.5t41.5 -101.5z" />
    <glyph glyph-name="colon" unicode=":" horiz-adv-x="350" 
d="M226 420q0 -15 -17 -27.5t-32 -12.5q-27 0 -55 49q0 20 10 33.5t21 25.5q9 -1 21 -2t23.5 -7t20 -20t8.5 -39zM228 104q0 -16 -14.5 -25t-26.5 -9q-21 0 -33.5 5t-18.5 13t-8 16.5t-2 16.5q0 19 13 37t33 18q7 0 17 -1.5t19 -9t15 -22t6 -39.5z" />
    <glyph glyph-name="semicolon" unicode=";" horiz-adv-x="350" 
d="M226 420q0 -15 -17 -27.5t-32 -12.5q-27 0 -54 49q0 20 10 33.5t21 25.5q8 -1 20.5 -2t24 -7t19.5 -19.5t8 -39.5zM226 149q3 -6 3 -19q0 -17 -2 -33t-8.5 -33.5t-19 -38t-33.5 -46.5q-8 -3 -14 -3q-13 0 -16 14q0 3 4.5 12l9.5 19t10 19t6 13q4 16 6 36q-2 -1 -8 -1
q-12 0 -28 11.5t-16 40.5l8.5 14.5t10.5 14.5t14.5 11.5t22.5 4.5q30 0 50 -36z" />
    <glyph glyph-name="less" unicode="&#x3c;" horiz-adv-x="450" 
d="M356 604q1 -2 1 -6q0 -15 -11 -33.5t-31 -46.5l-48 -68t-63 -98q-33 -56 -39 -76q9 -22 15 -34l9.5 -18.5t6.5 -10.5t6.5 -10t9 -17l15.5 -31q22 -48 29 -51q5 -11 20.5 -39.5l32.5 -57.5l30 -50.5t12 -18.5v-5q0 -13 -9 -24t-20 -11q-15 0 -30 14t-32 40.5t-36.5 63.5
l-44.5 83q-8 32 -58 108q-14 20 -21.5 40.5t-6.5 40.5q0 14 28 60l28 45q0 1 9 15.5l20 31l20 30l9 13.5q34 49 57 85.5t37 61.5q12 4 22 4q27 0 33 -30z" />
    <glyph glyph-name="equal" unicode="=" horiz-adv-x="620" 
d="M465 344q-11 -3 -23 -3q-17 0 -27.5 1t-23 2.5t-33 3t-57.5 1.5q-22 0 -28 -6q-17 -1 -41.5 -3t-58.5 -4q-36 3 -36 31q0 11 3.5 19t14.5 13t31.5 7.5t55.5 3.5q5 0 10.5 -0.5t12.5 -0.5q36 0 101 3q20 -1 42.5 -3t48.5 -5q19 -15 19 -34q0 -13 -11 -26zM466 153
q-12 -3 -26.5 -4.5t-38 -2t-60 -1t-93.5 -1.5q-56 -3 -80 -3q-22 0 -29 11.5t-7 23.5q0 10 3 16t14 9.5t34 5t63 2.5q0 1 18.5 -0.5t55.5 -1.5q25 0 31 6l105 3q33 -3 33 -26q0 -19 -23 -37z" />
    <glyph glyph-name="greater" unicode="&#x3e;" horiz-adv-x="450" 
d="M363 263q0 -15 -25 -61l-26 -46q0 -2 -8.5 -16.5l-18 -32t-18 -31l-8.5 -13.5q-21 -35 -42.5 -75.5t-43.5 -86.5q-15 -5 -24 -5q-12 0 -22.5 8.5t-10.5 25.5q0 15 11.5 37.5t30.5 54.5l44 74t53 98q16 28 24.5 47.5t10.5 30.5q-11 22 -17.5 33.5t-10.5 18t-7 10.5
t-6.5 10t-10 16t-16.5 29q-26 48 -32 50q-5 11 -22 37t-35.5 51.5l-32.5 44.5t-13 17q-1 2 -1 6q0 14 8.5 24.5t19.5 10.5q13 0 27.5 -11.5t32.5 -34t41 -56.5l52 -80q11 -33 64 -105q31 -41 32 -80z" />
    <glyph glyph-name="question" unicode="?" horiz-adv-x="544" 
d="M444 456q-6 -24 -13 -44.5t-17.5 -39t-26 -34.5t-38.5 -31q-34 -22 -50 -37.5t-22 -27.5t-5.5 -22.5t-1.5 -22.5q-7 -25 -37 -25q-19 0 -24.5 13t-5.5 29q0 28 18.5 63.5t62.5 60.5q17 9 29 16.5t20.5 17t15.5 21t13 28.5q8 19 11 25.5t3 9.5q0 21 -10.5 37.5t-25.5 28
t-32 17t-30 5.5q-17 0 -31.5 -3.5t-28.5 -13t-28 -27.5t-29 -48q-9 -11 -25 -11q-34 0 -36 35q18 47 42.5 73.5t50 39.5t49 16t38.5 3q46 0 75 -13t46.5 -34t26.5 -48.5t16 -56.5zM278 20q0 -16 -14.5 -25t-26.5 -9q-21 0 -33 5t-18.5 12.5t-8.5 16t-2 16.5q0 18 13 37
t34 19q7 0 16.5 -1.5t18.5 -8.5t15 -21.5t6 -40.5z" />
    <glyph glyph-name="at" unicode="@" horiz-adv-x="765" 
d="M665 286q-2 -22 -10.5 -48.5t-24 -49t-37.5 -37.5t-51 -15q-26 0 -44.5 15.5t-24.5 47.5q-11 -18 -42 -50l-39 -21q-28 -14 -48 -14q-53 0 -81.5 26.5t-28.5 86.5q0 37 12 69q47 126 151 126q8 0 28 -3.5t40.5 -13t36.5 -27.5t16 -48q0 -15 -4 -24l6 -63q9 -45 31 -45
q18 0 37 24.5t19 67.5q0 38 -35 131q-26 27 -67.5 46t-83.5 19q-34 0 -70.5 -11.5t-69 -31.5t-57.5 -47t-35 -58q-27 -80 -27 -137q0 -41 17 -70t47 -48t71.5 -28t90.5 -9q130 3 201 56q3 1 9 1q27 0 27 -27q0 -8 -5 -16q-107 -74 -237 -74q-15 0 -50 4.5t-90 14.5
q-47 28 -75.5 51t-43.5 45.5t-19.5 45.5t-4.5 52q0 64 23.5 125.5t67 110t105 78t137.5 29.5q40 0 81 -15.5t74 -47t54.5 -79.5t22.5 -114zM452 333q-22 25 -56 25q-33 0 -53.5 -16.5t-32 -38.5t-15 -43t-3.5 -30q0 -18 5.5 -29t14 -17t19 -8t19.5 -2q23 0 42 15.5
t32.5 38.5t20.5 49t7 48v8z" />
    <glyph glyph-name="A" unicode="A" horiz-adv-x="536" 
d="M495 -15q-4 -13 -25 -13q-20 0 -29 9l-35 99l-12 48q-5 17 -12 28.5t-13 16.5l-73 -3q-53 -2 -97 -12t-61 -21q-5 -27 -13 -59l-18 -69q-6 -14 -31 -14t-25 16q0 7 2.5 20.5t6.5 29.5l8.5 33.5l8.5 33.5q-1 4 -1 8v8q0 10 3.5 28.5t8 37l8 33t3.5 17.5l34 91
q3 15 12 38.5t19 47l19.5 44.5t12.5 32q7 24 36 24q23 0 31 -17q-1 2 6 -9t17.5 -29.5l23 -40l23.5 -42l18.5 -35.5t7.5 -19q3 -5 10.5 -20l16 -32.5l16 -33t11.5 -19.5q10 -13 19 -35t15.5 -44l12 -40.5t9.5 -24.5q0 -7 4.5 -21t10 -29.5t9.5 -29t4 -19.5q0 -4 -2 -12z
M342 232l-22 65q-10 29 -27 49q-9 20 -22.5 46t-31.5 57q-26 -41 -48 -125q-23 -47 -38 -114q2 0 11.5 2t20.5 4l21.5 4t15.5 2q7 0 15 -2q9 2 22 3t27.5 2t29 2.5t26.5 4.5z" />
    <glyph glyph-name="B" unicode="B" horiz-adv-x="573" 
d="M513 174v-7q0 -33 -27 -72t-93 -76q-27 -15 -49 -24t-44.5 -15.5l-47 -13t-56.5 -16.5l-22 -2q-9 -1 -18.5 -1h-15.5q-16 0 -24.5 4t-12.5 13t-5 24.5t-1 39.5q0 13 2 23q-3 7 -3 30q0 37 1.5 63.5t3.5 45l3.5 32.5t1.5 27t-0.5 27.5t-0.5 31.5l11 147q-1 8 -5 22
t-8.5 27t-8.5 22.5t-4 8.5q0 4 3.5 10.5t11.5 12.5t20.5 10.5t31.5 4.5h5q51 24 99 24q4 0 13 0.5t21.5 -1.5t28 -8.5t33.5 -20.5l38 -31l14 -27q10 -19 10 -39q0 -51 -51 -102q10 -3 26.5 -10.5t33 -16l29.5 -15.5t16 -10q14 -16 24 -56t16 -86zM345 489q-1 4 -7 13
t-16.5 17t-24.5 14.5t-31 6.5q-60 0 -83 -23q-2 -8 -2.5 -18t-1 -24t-1.5 -33t-5 -44q-2 -14 -2.5 -23t-0.5 -14q0 -7 2 -9l53 9.5t30 7.5t20 10t24 18q49 25 49 68q0 10 -3 24zM439 147q6 15 6 33q0 31 -8 53t-21.5 36.5t-32 24t-40.5 15.5q-32 9 -46 9q-11 0 -28 -4.5
t-35.5 -10l-35.5 -10.5t-27 -6q1 -8 1 -16.5v-17.5q0 -33 -5.5 -72t-5.5 -88q0 -14 1 -28.5t1 -24.5q0 -7 -0.5 -12.5t-0.5 -9.5q5 -1 11 -1.5t12 -0.5q14 0 37 6t45.5 13t40.5 13.5t23 7.5q15 6 32 17t33 24t27.5 26t15.5 24z" />
    <glyph glyph-name="C" unicode="C" horiz-adv-x="547" 
d="M487 131q-2 -11 -14 -27.5t-29 -33t-36.5 -30.5t-36.5 -19q-53 -24 -122 -24q-20 0 -35 0.5t-29.5 5.5t-29.5 16t-34 32q-21 22 -33 43.5t-18.5 41t-8 37.5t-1.5 33q0 34 9 81t44 113q28 52 29 54l61 38q32 20 61.5 31.5t64.5 11.5q18 0 40 -2t48 -6q26 -5 26 -34
q0 -27 -33 -31q-2 0 -14 1t-26.5 2.5t-29 2.5t-20.5 1q-26 0 -57 -16.5t-79 -58.5l-23 -48q-11 -23 -16 -37.5t-5 -22.5q-10 -19 -10 -59q0 -83 30.5 -123t87.5 -40q39 0 102 18q44 27 75 79q12 12 26 12t25 -11.5t11 -25.5v-5z" />
    <glyph glyph-name="D" unicode="D" horiz-adv-x="572" 
d="M512 311q-2 -86 -55 -159q-16 -18 -34.5 -41.5l-40.5 -52.5q-4 -2 -18.5 -12.5l-33 -23.5t-37 -23.5t-29.5 -11.5q-43 -5 -92 -27q-46 0 -53 33q1 6 1 14v18q0 50 -10 117.5t-10 148.5q0 36 4 85.5t12 112.5q12 28 50 28q17 0 30 -11q54 19 105 19q33 0 62 -8t52.5 -20
t40.5 -27t25 -30q31 -89 31 -129zM442 336q-2 21 -7 37t-15.5 29t-29 25t-47.5 25q-21 10 -50 10q-9 0 -25 -2t-32 -4.5l-28.5 -4.5t-15.5 -2q-7 0 -10 1q-16 -42 -16 -181q0 -12 0.5 -36t3 -56t8 -68.5t15.5 -73.5q24 2 112 51q12 6 34.5 25.5t45.5 50t40 71t17 89.5v14z
" />
    <glyph glyph-name="E" unicode="E" horiz-adv-x="493" 
d="M439 45q25 -10 25 -36q0 -37 -71 -37q-10 0 -22 0.5t-21 0.5h-22.5t-15.5 -1q-2 1 -26 2.5t-70 5.5q-24 -2 -37.5 -3t-17.5 -1q-37 0 -53 12q-5 35 -8 66.5t-3 60.5q0 51 4.5 91t4.5 66q0 34 -4 46l5 105q8 79 23 107q4 4 25.5 9t45.5 9.5l42 8t14 3.5q6 2 26 4l42 4
t39.5 3t16.5 1h3q8 0 15.5 -10.5t7.5 -24.5q0 -9 -1 -15.5t-7 -11.5t-20 -7.5t-40 -3.5q-45 -2 -61 -7h-6q-31 0 -75 -14q-5 -5 -9 -19t-6.5 -31t-4 -34t-1.5 -27q0 -26 2 -40t1 -14q32 1 57.5 6t45.5 5q9 0 21 -0.5t25 -0.5t23.5 -0.5t16.5 -0.5q10 0 14.5 -9t4.5 -22
q0 -22 -16 -28.5t-57 -6.5q-48 0 -60 -3q-5 0 -11.5 0.5t-13.5 0.5q-11 0 -23.5 -0.5t-26.5 -1.5q-3 -4 -5 -18.5t-3 -30.5t-1 -28.5v-12.5v-21q0 -35 -3 -90q7 -2 28.5 -4t45.5 -3.5t45.5 -3t27.5 -2.5q1 0 15 1l40 3q37 3 58 3h12z" />
    <glyph glyph-name="F" unicode="F" horiz-adv-x="499" 
d="M466 475q2 -6 2 -13q0 -40 -26 -40q-3 0 -15 3.5t-26 7l-28 7t-23 3.5h-9q-34 8 -65 12t-60 4q-7 0 -13.5 -0.5t-12.5 -0.5q-6 -19 -9.5 -37.5t-3.5 -38.5v-7q-1 -11 -1.5 -24t-0.5 -27v-21t1 -22l93 2q1 0 13.5 1t28.5 2.5t33 2.5t28 1q17 0 25 -9t8 -23q0 -15 -8 -22
t-24 -10t-40.5 -3.5t-57.5 -3.5h-19q-16 0 -36 -1t-43 -3v-115q-1 -8 -1 -14.5v-12.5q0 -47 12 -75q-2 -33 -30 -33q-20 0 -36 22l-13 56q-4 21 -6 42t-2 42q0 16 0.5 34t0.5 39v53.5t-2 60.5q3 146 33 205q6 6 32 6q4 0 15.5 -1t24.5 -2l25 -2t18 -1q3 0 4.5 0.5t4.5 0.5
q16 0 82 -15q96 -2 127 -30z" />
    <glyph glyph-name="G" unicode="G" horiz-adv-x="622" 
d="M516 -56q-9 -15 -29 -15q-16 0 -23.5 5.5t-10.5 15.5t-3 23.5t-1 29.5q1 20 1.5 35t0.5 25v12q-72 -60 -119 -65q-21 -2 -37 -3t-27 -2q-12 -1 -21 -2h1q-34 0 -67.5 14.5t-60.5 39.5t-43.5 58.5t-16.5 71.5q0 19 4.5 50t12 63t16.5 60.5t17 43.5q15 27 53 62
q50 29 130 65q20 4 47.5 8.5l63.5 10.5q63 -5 90.5 -20t27.5 -41t-29 -26q-14 0 -32.5 6.5t-38.5 7.5l-42 1.5t-16 0.5q-65 -12 -104 -36q-24 -4 -48 -24.5t-43 -53.5t-30.5 -75.5t-11.5 -89.5q0 -48 19.5 -79.5t76.5 -50.5q9 -3 24 -3q34 0 57 3.5t41.5 11.5t35 21t37.5 33
q18 16 23 16q3 0 4 -1q-1 5 -1 18v12t1 14q-15 9 -41.5 14.5t-51.5 8t-42.5 3t-15.5 0.5q-16 15 -16 32q0 24 22 28h-1q0 2 19 -2t52 -4q10 0 16 2q13 -1 30.5 -5t34 -9.5t30.5 -12t21 -11.5q15 -11 15 -54q0 -27 -8 -48q5 -18 5 -62q0 -29 1 -43.5t0 -15.5q-2 -6 -2 -11
q0 -7 2.5 -23.5t2.5 -24.5q0 -7 -2 -13z" />
    <glyph glyph-name="H" unicode="H" horiz-adv-x="627" 
d="M519 95q0 -6 1 -15t2.5 -19t3 -18.5t1.5 -12.5q0 -34 -32 -34q-20 0 -31 14l-8 70v8q0 6 -0.5 13.5t-1.5 17.5l-6 45q3 18 3 34q0 30 -9 54q-9 -2 -40 -6.5t-79 -4.5q-20 0 -31 1.5t-20.5 3.5t-20.5 3.5t-31 1.5h-51l-3.5 -54t-1.5 -43q0 -37 5 -55q2 -31 4 -53.5
t4 -37.5l3 -30v-6q0 -19 -26 -19q-12 0 -20.5 5t-14 18t-9 35t-4.5 56q-5 23 -5 53v14v42.5t-1 24.5v27t1 35.5t3.5 35.5t7.5 27q0 2 -0.5 5t-0.5 6q0 24 2 42t5 34.5l6 33.5t5 40q3 28 8.5 44.5t25.5 16.5q9 0 20 -6t11 -17q0 -7 -0.5 -21t-3 -38.5t-6.5 -60.5l-10 -87
q8 -6 23 -8.5t30 -3t26.5 -0.5h11.5q9 -4 30 -4q60 0 60 1h-2h11q24 0 43 3t35 8q1 5 1 9.5v9.5q0 31 -9 78v13q0 32 -6 61q0 26 35 26q20 0 28.5 -18t8.5 -50v-13q0 -71 11 -115q0 -26 2 -63t6 -85q-1 -5 -1 -12v-16v-20t1 -24z" />
    <glyph glyph-name="I" unicode="I" horiz-adv-x="355" 
d="M232 10q-15 -1 -26 -2l-21.5 -2t-23 -2.5t-31.5 -3.5q-6 2 -9 2q-4 0 -12 -2.5t-14 -2.5q-28 0 -28 27q0 12 5.5 18.5t14.5 11t22 7.5t28 7v11q0 32 6 83q-3 10 -3 26q0 36 2.5 58.5t2.5 23.5q0 18 -4 25v26q0 19 -1.5 40.5t-3 40.5t-2.5 33.5t-1 20.5v5q-19 0 -46 3
q-14 20 -14 34q0 7 2 12.5t9.5 9t21 5t37.5 1.5q17 0 30.5 -2t22.5 -5q23 0 37.5 -1t22.5 -3.5t10.5 -7.5t2.5 -13q0 -19 -20 -36q-5 0 -10.5 0.5t-11.5 0.5t-13 -0.5t-15 -0.5q3 -13 4 -28l2 -29.5t1.5 -27t2.5 -20.5l3 -97q-1 -24 -1 -42.5v-31.5q0 -28 1 -31l-6 -81
q6 0 16 -0.5t19 -3.5t16 -9.5t7 -18.5q0 -11 -7.5 -19t-24.5 -9z" />
    <glyph glyph-name="J" unicode="J" horiz-adv-x="359" 
d="M297 541q12 -9 12 -22q0 -11 -19 -39l-76 -8q1 -6 3 -23l4.5 -38.5t5 -45.5l4.5 -44.5l3.5 -35t1.5 -16.5q0 -16 -0.5 -39.5t-1.5 -55.5q-8 -46 -23 -81.5t-39 -59.5t-57.5 -36.5t-79.5 -12.5q-33 0 -54 9t-21 32q0 26 30 31q19 -4 33.5 -6t25.5 -2q33 0 64 26t41 70
l6 71q2 19 3 33.5t1 25.5v6t-0.5 12l-1.5 26t-2 49l-13 93q-16 -7 -63 -7q-20 0 -31 8.5t-14 30.5q5 11 56 33q22 1 105 15q3 -1 12 -1q3 0 13 1l21 2l21 2t13 1q13 0 17 -4z" />
    <glyph glyph-name="K" unicode="K" horiz-adv-x="539" 
d="M502 68q0 -2 0.5 -3t0.5 -2q0 -12 -11.5 -21.5t-25.5 -9.5h-6t-8.5 4t-16 14t-28.5 29q-41 43 -57 68q-6 3 -20 13.5t-28.5 22.5t-26 22.5t-14.5 14.5q-6 3 -15 10l-18 14t-18 12.5t-16 7.5l-12.5 -7.5t-17.5 -11.5v-25q0 -50 -10 -86q0 -8 1 -22.5t1.5 -29.5t1.5 -27.5
t1 -18.5q0 -31 -10 -40t-30 -9q-12 0 -19 2.5t-10 14t-3.5 34.5t-1.5 65q1 4 2.5 22.5t2.5 39.5t2 39t2 23q-2 10 -2 19q0 3 1 11t2 19l2 22.5t1 20.5q0 4 -0.5 7.5t-0.5 5.5q2 6 3.5 24t2.5 37.5t2 35.5t1 19q1 13 1.5 33.5t4 39.5t12.5 32.5t27 13.5q14 0 24.5 -9
t10.5 -20q-13 -53 -14 -105q2 -10 2 -22q0 -17 -2 -38.5t-6 -48.5l25 20.5l41.5 32t51 35.5t54.5 32l39.5 19.5t46.5 21.5h3q10 0 21.5 -11t11.5 -25q0 -10 -10.5 -18t-27 -16.5t-37 -17t-41.5 -19.5q-20 -13 -43 -30.5t-49 -40.5l30 -20q22 -18 39 -39q24 -16 57 -40
t78 -75q42 -42 46 -65z" />
    <glyph glyph-name="L" unicode="L" horiz-adv-x="447" 
d="M375 99q22 -4 22 -33q0 -19 -6.5 -25.5t-19.5 -6.5q-4 0 -19 1.5t-32.5 3l-34 3t-24.5 1.5h-12.5t-10.5 -1q-124 6 -140 25q-5 14 -7 32t-2 41q0 34 4.5 75t4.5 72v14t-2 11q7 42 10.5 69.5t3.5 41.5v11q0 9 1 27t5.5 35.5t14.5 31t28 13.5q34 0 34 -40q-4 -13 -8 -35.5
t-9 -56.5q2 -6 2 -16q0 -6 -2 -23t-4 -36.5t-4 -37t-2 -22.5q0 -8 2 -14q-5 -46 -7.5 -73.5t-2.5 -37.5q0 -23 4 -34q54 -9 82 -9q11 0 21 1.5t21 1.5q20 0 42 -2.5t47 -7.5z" />
    <glyph glyph-name="M" unicode="M" horiz-adv-x="712" 
d="M633 10q-5 -20 -34 -20q-19 0 -26 13q-6 32 -10.5 68t-6.5 78q0 15 -1.5 31t-4.5 39.5t-7 59t-8 90.5l-36 -51q-15 -21 -32 -38.5l-34 -34.5q-16 -30 -65 -73q-2 0 -2.5 -0.5t-2.5 -0.5q-23 0 -39 14t-33.5 42t-41 70t-61.5 98q0 -1 -2 -14l-5 -33t-6 -43.5t-6.5 -46.5
t-6 -42t-3.5 -29v-16q1 -15 -1 -35t-4 -45l-10 -103q-2 -20 -32 -20q-21 0 -27 9t-6 35q0 29 1 46t2 26t2.5 13t2.5 8l2.5 10.5t1.5 20.5q1 32 1.5 44.5t1 19.5t2.5 16.5t6 35.5q3 17 4 29t1 19v7q1 20 3 40.5t5 44t7.5 52t12.5 64.5q10 10 35 10q13 0 20 -4l35 -49
l36.5 -54t41.5 -68t49 -90l35 34q27 27 35 45q2 2 18.5 24l47.5 65l43 55q7 4 16 4q21 0 38 -15q18 -74 18 -112v-10q0 -5 2 -24.5t5 -42.5l6 -44t5 -28q0 -28 3 -60.5t8 -69.5q2 -12 3 -22.5t1 -18.5q0 -14 -3 -23z" />
    <glyph glyph-name="N" unicode="N" horiz-adv-x="607" 
d="M516 220v-14q0 -29 -3 -93q0 -4 0.5 -7.5t0.5 -6.5q0 -9 -2 -21.5t-6 -23.5t-10.5 -19t-15.5 -8q-18 0 -32 14q0 16 -80 111l-21 40q-6 11 -15 22.5l-18 22.5q-5 4 -15.5 19t-21 32l-19 31l-8.5 14q-24 24 -73 96q0 -24 -1.5 -44l-3.5 -46t-6 -62t-8 -92v-5
q0 -8 -3.5 -25t-8 -34.5t-8.5 -31t-4 -15.5q-10 -25 -36 -25q-24 0 -28 30l22 137q2 39 12 124q2 9 3.5 32.5t4 49.5t5.5 50t7 35q18 22 50 22q13 -5 36 -39l33 -50l38 -46l56 -71q36 -48 61.5 -88.5l44.5 -72.5q3 9 5 32t2 56q0 14 -0.5 24t-1.5 15q1 1 1 8q0 3 -1.5 15.5
t-4 27.5t-4 28t-1.5 18q0 6 2 12q-2 26 -5 57.5t-8 69.5q7 39 33 39q24 0 36 -25q1 -30 4 -59.5t6 -65.5t6 -83t4 -111z" />
    <glyph glyph-name="O" unicode="O" horiz-adv-x="567" 
d="M507 192q-13 -50 -73 -116q-9 -4 -21.5 -13t-32 -18t-47 -16t-66.5 -7q-75 0 -127 40t-79 126q-1 7 -1 14v15q0 66 13.5 114.5t36 83t50.5 57.5t58 37q53 14 100 14q36 0 70 -18.5t60 -52t42.5 -81.5t18.5 -107zM438 190q4 25 5.5 42.5t1.5 28.5q0 42 -12 79t-29 64.5
t-37.5 43.5t-36.5 16q-62 0 -107.5 -28t-63.5 -78q-29 -81 -29 -132q0 -27 9 -52.5t26 -45t41 -31.5t53 -12q43 0 72.5 8t50 22t33.5 33t23 42z" />
    <glyph glyph-name="P" unicode="P" horiz-adv-x="482" 
d="M436 346q-2 -17 -4.5 -30t-9 -24.5t-18 -24.5t-30.5 -30q-18 -17 -33.5 -25t-32 -13.5t-36.5 -11t-49 -16.5q-16 -6 -29 -9.5t-24 -2.5h-5q0 -32 1.5 -53t3 -37l3 -30.5t1.5 -32.5v-20t-2.5 -20.5t-9.5 -15.5t-21 -6q-15 0 -22 7t-10 18.5t-3 27t-2 32.5v-1q-1 13 -2 32
q-1 17 -2 41t-3 57v5q0 5 -1 15.5t-1.5 21.5t-1.5 21t-1 15v-2q-1 0 1 28.5t2 86.5q0 19 -1 34.5t-4 27.5q0 2 0.5 5t0.5 8q0 6 -0.5 13.5t-0.5 16.5q0 17 4.5 26.5t13 14t20.5 5.5t27 1h10q53 14 88 14q8 0 27.5 -3l51.5 -8q27 -12 46.5 -23t32 -27.5t19 -42t6.5 -65.5z
M364 328q2 10 2 19v17q0 37 -16.5 55t-61.5 32q-20 5 -37 5q2 0 -12 -1.5t-31.5 -4.5t-32.5 -9t-15 -15q0 -34 2.5 -64t2.5 -45q-1 -2 -1 -92h8q18 0 39.5 6.5t42.5 14.5q88 20 110 82z" />
    <glyph glyph-name="Q" unicode="Q" horiz-adv-x="587" 
d="M547 33q-1 -19 -12.5 -33t-22.5 -14q-16 4 -57 38l-44 35q-13 -9 -31.5 -20l-41.5 -25q-45 -13 -92 -13q-29 0 -49 5t-36.5 17t-32 31t-35.5 46q-34 46 -34 129q0 41 8 80t21 73t30.5 62t37.5 48q13 13 31.5 24.5t42.5 22.5q53 14 101 14q22 0 43 -3q33 -14 60 -41.5
t46.5 -64t30.5 -79.5t11 -88q0 -11 -8 -36t-18.5 -51t-21 -48t-15.5 -27q8 -8 19 -18l26 -23zM452 264q2 6 2 13v14q0 35 -10 71t-25.5 65.5t-36 48t-41.5 18.5q-41 0 -79 -15.5t-67 -46.5t-47 -77.5t-18 -108.5q0 -88 30 -128q5 29 16 46.5t26 27.5t32 13t35 3q46 0 79 -16
l61 -39q29 42 43 111zM363 97q-12 15 -47 38q-36 11 -51 11q-7 0 -15 -2.5t-15 -9.5t-11.5 -18t-4.5 -29q0 -16 17.5 -21t35.5 -5q20 0 42 5.5t49 30.5z" />
    <glyph glyph-name="R" unicode="R" horiz-adv-x="513" 
d="M474 24q0 -12 -11 -21.5t-22 -9.5q-3 0 -5.5 -1.5t-7.5 2.5t-16 16.5t-30 40.5l-52 75q-2 6 -11 20l-19.5 30.5l-20 31t-10.5 20.5q-4 0 -16 -1.5t-26 -3l-27.5 -3t-19.5 -1.5h-9t-8 1l-6 -82t-2 -25q1 -8 1 -16.5v-17.5q0 -26 -2.5 -53t-7.5 -56q-8 -12 -24 -12
q-15 0 -26.5 8.5t-11.5 28.5q0 7 0.5 19.5t1.5 24.5t1.5 22t0.5 14v6q1 8 3.5 64t6.5 171q0 7 2.5 22l5.5 32.5t5 34.5t2 29q0 7 -0.5 13.5t-1.5 13.5v8.5t1.5 21t4.5 26t8 21.5q6 2 12 3t14 1q18 0 42 -8q21 2 37.5 2h28.5q10 0 18 -0.5t16.5 -1.5t18.5 -3.5t24 -6.5
l44 -28q35 -26 48 -54.5t13 -72.5q-2 -17 -3.5 -28t-7 -20t-16 -19t-28.5 -25q-16 -14 -28.5 -21.5t-21.5 -10.5q1 -5 10.5 -20l20.5 -32.5l20 -33t11 -21.5q17 -7 46 -57zM371 358q1 7 1.5 12t0.5 10q0 6 -2.5 17t-11.5 23.5t-25.5 26.5t-44.5 26q-23 9 -40 9
q-6 0 -14 -1.5l-18 -3.5l-35 -6q0 -20 -0.5 -28.5t-2 -23.5l-4.5 -44t-7 -90q12 -4 30 -4q24 0 52 6.5t53 17t43.5 24.5t24.5 29z" />
    <glyph glyph-name="S" unicode="S" horiz-adv-x="513" 
d="M433 196q-1 -30 -2 -47.5t-2.5 -28.5t-5 -19.5t-9.5 -21.5q-21 -46 -65 -71t-112 -25q-44 0 -70 8.5t-55 20.5l-42 20q-23 11 -36.5 23.5t-13.5 25.5q0 32 31 36l40 -13.5t26.5 -11t18 -11.5t14.5 -13q47 -19 101 -19q8 0 20.5 3t25.5 7.5t24 11t17 12.5q7 14 11.5 37
t4.5 53q0 27 -16 46t-40 32t-50.5 22.5l-47.5 17.5q-33 13 -70 39q-42 67 -42 99q0 71 88 137q88 30 114 30q9 0 25.5 -7t33 -17.5t28.5 -23.5t12 -25q0 -28 -34 -28q-2 0 -12.5 6.5l-23.5 14t-26.5 13.5t-22.5 6q-21 0 -40.5 -10t-34.5 -25t-24 -32.5t-9 -32.5
q0 -26 15 -48t35 -33q4 -2 20 -7.5t38.5 -14.5t48 -22t49 -29.5t41 -38t24.5 -46.5z" />
    <glyph glyph-name="T" unicode="T" horiz-adv-x="487" 
d="M448 437q-8 -4 -22 -4q-5 0 -18.5 1.5t-27 3.5l-24.5 3.5t-12 1.5q-30 0 -76 -12l15 -113q5 -47 7.5 -82t2.5 -59v-15t-1 -12q1 -14 1 -27v-24q0 -37 -3 -58t-8.5 -31.5t-14 -13t-19.5 -2.5q-15 0 -21.5 9.5t-8.5 23t-1.5 27.5t0.5 23q0 20 3 36t3 30q0 3 -1.5 18t-3 39
t-2.5 55.5t-1 67.5q-3 52 -19 98q-20 -1 -40 -2.5t-38 -3.5t-31.5 -5t-20.5 -6q-36 0 -36 31q0 13 11 29l164 30l53 6q24 3 47 3q9 0 8.5 0.5t8 0l34.5 -2t87 -5.5q14 -8 14 -29q0 -17 -9 -30z" />
    <glyph glyph-name="U" unicode="U" horiz-adv-x="578" 
d="M485 333q-4 -56 -9 -97.5t-14.5 -73.5t-25 -56.5t-39.5 -46.5q-18 -16 -33.5 -25t-30 -13t-27.5 -4.5t-25 -0.5q-31 0 -54 6.5t-42 22.5t-35 42t-33 65q-10 38 -15.5 69.5t-8.5 59.5t-3.5 53.5t-0.5 51.5q0 15 -1 35.5t1.5 40t11 33t27.5 13.5q29 0 38 -31
q-2 -13 -3 -34.5t-1 -51.5q0 -48 1.5 -82.5t2.5 -39.5q1 -16 5.5 -38t11 -44t12.5 -39t10 -22q19 -29 78 -42q69 16 97 62t28 133q0 28 2 53t4 47l-3 69v14q0 32 5.5 47.5t32.5 15.5q14 0 22 -7t11.5 -17.5t4.5 -23.5t1 -26q0 -6 -1 -18t-1.5 -25t-1.5 -25.5t-1 -18.5
q0 -8 0.5 -16t1.5 -15z" />
    <glyph glyph-name="V" unicode="V" horiz-adv-x="543" 
d="M503 521q-1 -21 -6.5 -51.5t-13.5 -62.5t-17 -61t-18 -47q-8 -17 -23 -44.5l-35 -65.5l-58 -99q-31 -51 -52 -66q-23 2 -32 5t-15 11q-43 52 -65 121q-30 40 -46 78.5l-32 78.5q-46 102 -50 156q0 12 10.5 23.5t26.5 11.5q14 0 26.5 -24.5t23.5 -56t19.5 -63t14.5 -44.5
q7 -16 19 -40l29 -57q9 -23 22.5 -50t32.5 -58q10 8 24 29t29.5 50l32 62.5t30 65t24 58.5t14.5 43q6 25 12 53t17 60q8 4 20 4q25 0 36 -20z" />
    <glyph glyph-name="W" unicode="W" horiz-adv-x="753" 
d="M731 501q-1 -12 -4.5 -32t-9 -41.5l-11 -41.5t-10.5 -30q-6 -26 -20.5 -61t-33 -72.5t-40 -74t-40.5 -64.5q-10 -23 -26 -34.5t-31 -20.5q-3 2 -12.5 19.5l-21 40.5l-23 47.5t-17.5 40.5q-21 19 -42 68l-30 70l-5 -15.5l-9.5 -30.5l-12 -39.5t-13 -40.5l-11.5 -34.5
t-8 -21.5l-27.5 -55.5t-18 -31.5t-14.5 -16.5t-17 -11.5q-11 6 -25.5 25.5t-27 43.5t-21.5 47t-10 37l-66 166q-1 13 -4.5 27.5t-7.5 29t-7.5 29t-3.5 27.5q0 22 10 32.5t24 10.5q22 0 41 -22v-7q0 -9 2.5 -32t6 -46l6 -39.5t2.5 -12.5l23 -57.5t24 -65.5q7 -30 33 -87
q2 1 8 15.5l13 32l13 32t8 16.5q2 12 7.5 29t11.5 33l11 28.5t6 15.5q6 45 19 72q-1 3 -1 10q0 26 37 26q12 0 19.5 -10t13 -23.5t9.5 -27t8 -21.5l26 -56q11 -24 20.5 -39.5t16.5 -23.5q8 -19 21 -43.5t30 -53.5q10 11 23 30.5t28 51t32 77.5t34 109q26 94 39 116
q4 1 7.5 1.5t8.5 0.5q28 0 40 -21z" />
    <glyph glyph-name="X" unicode="X" horiz-adv-x="554" 
d="M503 37q0 -2 0.5 -4.5t0.5 -4.5q0 -17 -9 -28.5t-23 -11.5q-10 0 -20 9t-20.5 24t-22.5 34.5t-27 40.5l-47 51l-60 67q-48 -71 -83 -101l-57 -76q-10 -17 -22 -35.5l-26 -40.5q-9 -4 -23 -4q-24 0 -34 9.5t-10 28.5q2 6 12 21.5l20.5 31.5l19.5 28.5t10 13.5l34 39.5
l38.5 44.5l38 46t32.5 45q-11 9 -21.5 19.5l-25 24l-33.5 30.5t-47 40q-25 20 -35 39q13 40 41 40q3 0 9 -2l69 -60q2 -4 9.5 -11l16 -15l16.5 -15.5t11 -13.5q16 -5 36 -28q11 14 23.5 28t26.5 28l50 59q26 29 47 49.5t30 20.5q12 0 24 -10.5t12 -21.5q0 -3 -4 -10.5
t-14 -20t-27 -32t-44 -47.5q-2 -1 -14 -15l-25.5 -30l-25.5 -30t-13 -15l60 -67q9 -13 20.5 -25.5l27.5 -29.5t35 -42.5t43 -64.5z" />
    <glyph glyph-name="Y" unicode="Y" horiz-adv-x="489" 
d="M479 499q-7 -17 -12 -25.5t-13.5 -18.5t-23 -24.5l-41.5 -43.5l-35 -37t-27.5 -27.5l-27.5 -25l-35 -30.5q0 -16 -1 -39t-1 -53q0 -8 1 -20.5t2.5 -25.5t2.5 -25t1 -18v-6l2 -42t3 -46q-4 -19 -31 -19q-14 0 -22 9t-12 24.5t-5.5 35.5t-1.5 42q0 8 0.5 15t1.5 12
q-6 81 -6 124v16q-17 17 -41.5 44.5l-58.5 65.5q-5 12 -16 27t-22.5 29t-20.5 26t-9 18q0 11 10.5 23.5t24.5 12.5q19 0 37 -26.5l45 -68.5q3 -2 14.5 -14l25 -25.5l26 -25.5t16.5 -13q3 1 14 10l24.5 20l26 21l16.5 13q3 2 8.5 10l12.5 18.5t15.5 21t17.5 16.5l36 52
q21 30 40 40q4 -2 10.5 -7t13 -11t11 -13.5t4.5 -13.5v-2z" />
    <glyph glyph-name="Z" unicode="Z" horiz-adv-x="511" 
d="M439 32q-2 -1 -11 -1q-3 0 -21.5 2t-42.5 4l-47 4t-33 2h-18q-10 0 -27 1t-37.5 2.5t-43.5 3.5t-45 5q-11 0 -22.5 3.5t-22 9.5t-18 14t-10.5 17q2 6 16 24.5l31.5 40.5l34 42.5t22.5 29.5q27 28 49 54l43 51.5l43 52l49 56.5l-64 4h-11q-26 0 -67 -4t-81 -7
q-19 7 -19 35q0 9 5.5 16.5t23 13t49.5 9t86 3.5q34 0 72 -4.5t83 -15.5q8 -11 8 -32q0 -23 -14 -31l-25.5 -30l-20 -23.5l-21 -24.5l-28 -33l-40.5 -50.5l-60 -75.5q-6 -11 -15.5 -22.5l-21.5 -25.5l-27 -32q87 -15 125 -15h17q10 0 31 -1t42.5 -2.5t39.5 -2.5t22 -1
q14 0 20 2q24 -5 24 -30q0 -31 -22 -38z" />
    <glyph glyph-name="bracketleft" unicode="[" horiz-adv-x="520" 
d="M393 -70q0 -17 -8.5 -25t-20.5 -10.5t-25.5 -2t-23.5 0.5h-14.5t-14 0.5t-16.5 2t-22 4.5q-6 1 -10.5 1.5t-6.5 0.5h-2q-11 2 -22 4.5t-24 6.5q-13 19 -13 71q0 17 1.5 34t1.5 46q0 71 -2.5 118.5t-2.5 58.5q0 36 -0.5 73t-0.5 75v79t-0.5 43.5t0 19t1 7t1.5 6t3 16.5
q7 48 24 68l44 4.5l47.5 5t43.5 4t32 1.5q23 0 23 -28q0 -32 -24 -33h-20q-85 0 -98 -11l-6.5 -72t-4.5 -127q0 -40 3 -113v-24q0 -29 1 -64.5t3 -78.5v-33q0 -76 6 -92l52 -5q7 -3 25 -3q8 0 16.5 0.5t15.5 0.5q18 0 28 -5t10 -25z" />
    <glyph glyph-name="backslash" unicode="\" horiz-adv-x="459" 
d="M419 -55q-5 -26 -30 -26q-10 0 -19.5 9.5t-18 24.5t-16 32.5t-11.5 32.5l-28.5 52.5l-19.5 37.5t-13.5 29t-9.5 27q-6 4 -12.5 17t-16.5 36l-36 82l-88 173q-27 43 -60 114q1 12 11 22.5t23 10.5t27.5 -16.5t25.5 -38.5l27 -56l31 -53t12 -20q10 -20 14 -32.5t4 -23.5
q4 -4 12.5 -19.5l17.5 -33.5l16.5 -33t9.5 -18q8 -26 23.5 -60t40.5 -76q78 -131 84 -194z" />
    <glyph glyph-name="bracketright" unicode="]" horiz-adv-x="520" 
d="M353 155v-79v-43.5v-19t-0.5 -7t-1.5 -6t-3 -16.5q-7 -48 -24 -68q-19 -2 -43 -5t-48 -5t-44 -3.5t-32 -1.5q-23 0 -23 28q0 31 24 33h20q85 0 98 11q2 22 6 72t4 127q0 20 -0.5 48t-1.5 65v32q0 29 -1 62t-3 73v33q0 75 -6 92l-52 5q-10 2 -25 2q-8 0 -16.5 -0.5
t-16.5 -0.5q-18 0 -27.5 5.5t-9.5 25.5q0 17 8.5 25t20.5 10.5t25.5 2t23.5 -0.5q16 0 28.5 -1t38.5 -6q12 -3 16 -3q2 0 2 0.5t1 0.5q11 -2 22 -4.5t24 -6.5q12 -18 12 -71q0 -17 -1 -34.5t-1 -46.5q0 -70 2.5 -117.5t2.5 -58.5q0 -36 1 -73t0 -75z" />
    <glyph glyph-name="asciicircum" unicode="^" horiz-adv-x="584" 
d="M462 503q1 -3 1 -10q0 -14 -11 -23t-26 -9q-9 0 -13 1.5t-7 6t-7.5 12.5t-15.5 21q-17 18 -24 26l-11.5 13l-9.5 11l-17 21l-33 40l-21.5 -22.5t-23.5 -27.5l-31 -39.5l-43 -58.5q-4 -4 -12 -4q-3 0 -9 1.5t-12.5 5t-11 8.5t-4.5 12q0 15 14 35l31 41l27 30l37 42l37 47
q8 4 19 4q12 0 22.5 -8t21.5 -20.5t23 -28t26 -29.5l28 -29.5t19.5 -22l16.5 -21z" />
    <glyph glyph-name="underscore" unicode="_" horiz-adv-x="320" 
d="M347 -164q-11 -3 -28 -3q-6 0 -20.5 1t-30.5 2t-30 2t-19 1q0 -1 -21.5 0.5t-65.5 1.5q-32 0 -38 -6l-98 -6q-36 3 -36 31q0 19 21 36q13 3 102 6q5 0 11.5 -0.5t14.5 -0.5q40 0 108 3l125 -8q18 -9 18 -30q0 -17 -13 -30z" />
    <glyph glyph-name="a" unicode="a" horiz-adv-x="466" 
d="M432 100q14 -9 14 -22q0 -14 -14 -27t-27 -13q-31 11 -53.5 41t-30.5 65q-7 -15 -16.5 -37.5t-24.5 -42.5t-37 -34.5t-55 -14.5q-17 0 -45 6q-31 22 -48.5 35.5t-26.5 25.5t-11 27t-2 40q0 21 6.5 46.5t18.5 51.5t30 51t42 46q44 15 69 22t34 7q20 23 42 23q12 0 21 -14
t16.5 -36.5t12 -49.5t7.5 -52q3 -5 5 -11.5t4 -16.5l6 -28q6 -29 23 -50t40 -38zM291 232l-7 30l-13 54q-12 -3 -26 -2.5t-30 -5.5t-34.5 -22t-37.5 -50q-24 -44 -24 -93q6 -13 11 -22.5t12.5 -17t18.5 -14.5t28 -15q15 3 25.5 7t18.5 12.5t15 21.5t17 34q26 58 26 83z" />
    <glyph glyph-name="b" unicode="b" horiz-adv-x="463" 
d="M384 282q24 -47 24 -85q-1 -14 -3 -28.5t-9 -28.5l-22 -47l-31 -33q-34 -32 -64 -42.5t-50 -10.5q-26 0 -57 19q-9 -16 -29 -16q-15 0 -31 9q1 14 1.5 31.5t0.5 38.5q-1 2 -2 15.5l-2.5 32.5t-3.5 40.5t-4 40t-4 32t-3 15.5l-14 119q-5 43 -13 74t-8 45q0 37 32 37
q20 0 31.5 -15t16.5 -60q2 -23 5 -38.5t5 -24.5v-3q0 -3 1.5 -21l3 -37.5t3 -35t1.5 -13.5q22 16 38.5 25.5t32 14t31.5 6t38 1.5l40 -13q30 -15 45 -44zM336 162q6 30 6 44q0 7 -4 19.5t-12 24t-20 20t-28 8.5q-18 0 -47.5 -15.5t-58.5 -32.5q5 -44 9 -124q12 -38 40 -38
q17 0 50 14l40 35q21 22 25 45z" />
    <glyph glyph-name="c" unicode="c" horiz-adv-x="427" 
d="M389 93q-20 -41 -59.5 -62.5t-98.5 -21.5q-13 0 -42 5t-59 21.5t-52.5 46t-22.5 79.5q0 44 13 84.5t45 77.5q21 24 37 39.5t31.5 23.5t34 11t45.5 3q30 0 47 -3.5t26 -9t11.5 -13t2.5 -16.5q0 -34 -40 -34q1 0 -5 1.5t-15 4t-19 4t-18 1.5q-29 0 -63.5 -27.5t-54.5 -85.5
q-6 -17 -8.5 -30.5t-2.5 -22.5q0 -32 17.5 -51.5t40 -30t42.5 -14t25 -3.5q17 0 33.5 9t29.5 19.5t21.5 19.5l8.5 9q8 7 18 7q13 0 22 -12t9 -24v-5z" />
    <glyph glyph-name="d" unicode="d" horiz-adv-x="477" 
d="M397 499q-2 -5 -3 -16t-1 -28q0 -43 1 -69t1 -32l-3 -17q3 -8 3 -19q0 -3 -1 -11.5t-2 -19l-2 -21.5t-1 -18q0 -2 0.5 -4t0.5 -4q-5 -23 -11 -80l-13 -129q-8 -24 -37 -24q-18 0 -22 5.5t-10 19.5q-31 -20 -94 -20q-34 0 -61 12t-46.5 32t-30 47.5t-10.5 59.5
q0 19 4.5 37.5t11.5 34t15.5 28.5t16.5 21q20 21 58.5 39t81.5 18q40 0 79 -19v16q0 21 1.5 44t3.5 50l-4 68q0 7 -0.5 13t-0.5 12q0 26 6.5 39.5t27.5 13.5q13 0 20.5 -4t11 -13.5t5 -24.5t4.5 -37zM316 253q-25 24 -76 24q-24 0 -40.5 -4t-28.5 -13.5t-20.5 -24
t-17.5 -35.5q-7 -18 -7 -39q0 -40 29.5 -63.5t69.5 -23.5q38 0 72 28q5 19 11.5 46t6.5 55q0 6 -0.5 13.5t-0.5 13.5q0 8 0.5 13.5t1.5 9.5z" />
    <glyph glyph-name="e" unicode="e" horiz-adv-x="478" 
d="M417 40q-32 -32 -75 -55t-88 -23q-19 0 -87 14q-18 12 -38 30t-36.5 41.5t-27 50t-10.5 55.5v-1q1 9 2 21q1 11 2 25.5t3 34.5q20 32 41.5 63t63.5 55q64 15 96 15q15 0 26.5 -1.5t22 -7t21 -14.5t25.5 -24q11 -12 17 -17.5t9 -8.5t3 -5v-6q0 -36 -7.5 -58t-28 -36
t-56.5 -24.5t-93 -23.5h-6q-18 0 -64 -8q36 -106 115 -106q56 0 127 57q7 6 18 6q31 0 31 -30q0 -10 -6 -19zM321 264q-27 45 -61 45q-15 0 -32 -4t-32.5 -11t-29 -17t-22.5 -23q-4 -8 -7.5 -23l-8.5 -36q27 5 59.5 7t62 8t49.5 18t22 36z" />
    <glyph glyph-name="f" unicode="f" horiz-adv-x="352" 
d="M305 327l-55 -4q-7 0 -24.5 -3.5t-30.5 -3.5q1 -18 3.5 -45l5 -55t5.5 -52t5 -37q-1 -5 -1.5 -13t-0.5 -19q0 -29 3 -77q-14 -21 -39 -21q-23 0 -32 21q0 9 0.5 20.5t0.5 25.5t-0.5 31.5t-0.5 37.5v6q0 14 -3 34t-8 46l-7 91q-8 0 -21.5 -2t-33.5 -6q-3 0 -5.5 0.5
t-5.5 0.5q-9 0 -16 -1.5t-6 -0.5q-23 5 -23 32q0 24 22 28q1 0 2.5 -0.5t3.5 -0.5q5 0 12.5 1t14.5 2.5l11.5 2.5t3.5 1q7 2 16 3t22 2l-8 100v6q0 39 34 95q10 6 19.5 11t22.5 9.5t32 8.5t49 8h5q26 0 26 -31q0 -24 -23 -32h-6q-15 0 -31 -6l-28 -12q-17 -8 -22 -21.5
t-8 -28.5q0 -1 0.5 -8.5t0.5 -17t0.5 -18.5t0.5 -13v-8q0 -8 1 -17t4 -20q35 0 53 5t32 5q15 0 29.5 -5.5t14.5 -25.5q0 -23 -16 -29z" />
    <glyph glyph-name="g" unicode="g" horiz-adv-x="504" 
d="M424 341q3 -14 3 -35q0 -35 -9 -92q1 -4 1 -16q0 -11 -1.5 -26l-3.5 -35q1 -5 1 -10.5v-12.5q0 -24 -3 -60t-8 -84q-14 -113 -93 -167q-59 -21 -122 -21q-27 0 -62 11l-53 21l-49 39q-14 11 -20 17.5t-6 13.5q0 17 9.5 28t23.5 11q11 0 22 -6l57 -46q39 -25 92 -27
q8 0 38 8l36 9q21 12 39 41.5t22 62.5v5q-1 7 1 19.5t4 31.5l7 69q-2 -1 -14.5 -9.5t-35.5 -18.5t-56 -18t-74 -8q-11 0 -27 11.5t-48 38.5l-24 44q-9 16 -12.5 33.5t-3.5 34.5q0 26 22 53t54 49t69.5 36t69.5 14q14 0 40 -2t49 -18q0 3 1.5 8t4.5 10t9.5 8.5t17.5 3.5
q28 0 32 -19zM352 263q-13 12 -31 16.5l-34 8.5q-28 -3 -80 -17q-79 -45 -79 -87q0 -7 5.5 -18.5t14 -24t19 -23.5t21.5 -17q41 0 100 24q28 5 59 50q2 20 3.5 39t1.5 36v13z" />
    <glyph glyph-name="h" unicode="h" horiz-adv-x="487" 
d="M407 32q-4 -11 -15.5 -21t-22.5 -10q-13 0 -20 10.5t-10 27t-4 37.5t-1 42q-4 10 -4 26q0 7 0.5 15.5t0.5 14.5q0 35 -6 56.5t-15.5 33.5t-20.5 16t-21 4q-18 0 -36.5 -7t-34 -16t-26 -18.5t-13.5 -14.5q-3 -11 -4.5 -31.5t-2.5 -47.5t-2 -58.5l-2 -64.5q-3 -19 -31 -19
q-23 0 -30 16.5t-7 56.5q0 10 0.5 14t2 14t3.5 31.5t5 68.5q1 22 2 39t0 30v18t-1 12q1 1 2 17.5t3 36.5l4 38.5t5 25.5q0 5 -0.5 9t-0.5 9q0 16 1.5 39.5t6.5 44.5t15 36t28 15q29 0 30 -31q-2 -29 -7 -67l-13 -100q-5 -15 -5 -55v-18q2 1 9 6l16.5 11.5t20.5 12t21 7.5
q23 4 48 4q48 0 76.5 -27.5t41.5 -91.5q1 -24 2.5 -39t3 -33.5t4 -46.5t4.5 -78z" />
    <glyph glyph-name="i" unicode="i" horiz-adv-x="279" 
d="M199 456q0 -17 -5.5 -27.5t-14.5 -15.5t-19.5 -6.5t-20.5 -1.5q-14 10 -23.5 22.5t-9.5 24.5q0 9 8 20.5t14 22.5l46 -4q25 -6 25 -35zM165 311v-4q0 -9 -2.5 -29.5t-7.5 -53.5q1 -5 1 -14q0 -6 -4 -27t-4 -36q0 -3 0.5 -6t0.5 -5q-3 -14 -3 -40q0 -11 0.5 -23.5
t1.5 -26.5q-8 -29 -31 -29q-20 0 -27.5 21.5t-7.5 56.5t2.5 64t6.5 54.5t8.5 49t8.5 46.5q10 15 28 15q19 0 29 -13z" />
    <glyph glyph-name="j" unicode="j" horiz-adv-x="276" 
d="M161 406q-15 -20 -48 -26q-12 5 -26.5 16t-14.5 31q0 17 11 32t27 15q4 0 12.5 -2.5t16.5 -5.5t14.5 -6t7.5 -3l4 -27v-6q0 -10 -4 -18zM186 116v-11q0 -42 -9 -141q-37 -169 -173 -169q-11 0 -24 1.5t-24 5t-18.5 10t-7.5 17.5q0 14 9 24.5t22 10.5q8 0 16.5 -2.5
t19.5 -2.5q29 0 53.5 9.5t35.5 40.5q5 16 10.5 27.5t9.5 18.5q6 32 9.5 54t5 37t2 24t0.5 15q0 11 -1 25t-2 26.5t-2 21l-1 8.5q-12 52 -15 96q7 31 31 31t37 -19q4 -25 7.5 -64z" />
    <glyph glyph-name="k" unicode="k" horiz-adv-x="428" 
d="M386 74q1 -3 1 -11q0 -34 -31 -34q-12 0 -24 13.5t-26 34t-33 45t-45 47.5q-23 15 -54 39l-24 -12q0 -6 -1 -16t-2.5 -20.5t-2.5 -21t-1 -16.5v-12t0 0.5v1.5l1 -9t2 -31.5l3 -65.5q0 -24 -35 -24q-23 0 -29 24.5t-6 75.5q0 42 3 75t3 58v29q0 6 1.5 18.5t3.5 27
t3.5 28.5t1.5 24v12q0 3 3 27.5t8.5 57.5t13.5 67t18 54q4 10 22 10q33 0 33 -25q0 -9 -3 -26t-10 -41q-7 -35 -10 -60.5t-3 -39.5q-2 -11 -5.5 -39t-8.5 -73q11 7 24.5 18.5t33 26.5t47 33t67.5 38h5q11 0 22 -9t11 -22q0 -8 -3.5 -13.5t-13 -11.5t-27.5 -16l-47 -27
q-1 -2 -8.5 -7.5l-16 -11.5t-16 -10.5t-8.5 -5.5q12 -5 18.5 -9t16 -14l28 -29.5t56.5 -55.5q9 -12 20 -28.5z" />
    <glyph glyph-name="l" unicode="l" horiz-adv-x="272" 
d="M192 533q-1 -11 -4 -27t-7 -32.5l-7.5 -31.5l-5.5 -24q1 -5 1 -9v-9q0 -8 -2 -21t-5 -27t-5 -26.5t-2 -19.5q0 -10 0.5 -29t0.5 -41.5t-2 -46.5t-7 -43q1 -12 1 -24t2.5 -25.5t9 -29.5t21.5 -34q-3 -11 -18.5 -20.5t-31.5 -9.5q-21 0 -34.5 23.5t-13.5 86.5
q0 11 1.5 19.5t1.5 20.5q0 25 -6 60q4 10 6.5 28t3.5 35.5t1.5 30t0.5 11.5q0 1 2.5 16t5.5 36t5.5 42.5t2.5 34.5v8l7 40l9 48q9 15 30 15q26 0 38 -25z" />
    <glyph glyph-name="m" unicode="m" horiz-adv-x="729" 
d="M649 50q0 -21 -32 -21q-15 0 -22.5 13t-10.5 33t-3.5 44.5t-1.5 47.5q-5 18 -12 62q-13 18 -32.5 29.5t-43.5 11.5q-9 0 -20 -2.5t-23 -6t-23 -8.5t-18 -11q-20 -16 -34 -77q1 -5 1 -19q0 -12 -1.5 -28.5l-3.5 -37.5v-7q0 -3 0.5 -17t-2.5 -29.5t-11 -28t-24 -12.5
q-33 0 -33 25q0 3 1.5 16.5t4 30.5t4 34.5t1.5 28.5q0 21 -3 38v19q0 18 -2.5 38t-8.5 37.5t-16.5 30.5t-26.5 19q-2 1 -33 4q-26 -6 -44 -33l-24 -47q-3 -19 -4.5 -34t-2.5 -28l-3 -46q6 -35 6 -58q0 -20 -5 -32.5t-27 -12.5q-11 0 -18 2.5t-11.5 14.5t-6.5 36t-2 67
q0 34 4.5 67.5t12.5 84.5q-3 30 -15 58q0 13 9.5 23t25.5 10q13 0 21.5 -9t23.5 -35q20 20 34.5 29t30.5 11q16 0 25.5 -0.5t18 -3t18.5 -9l28 -18.5q18 -13 37 -73q5 7 15.5 18t26.5 21t39 17t53 7q32 0 55 -6t40 -18t29.5 -30t23.5 -42v-8q0 -9 2 -31l4 -43.5t4 -37.5
t2 -14q0 -1 0.5 -6.5t1 -13l1 -15.5t0.5 -13v-6z" />
    <glyph glyph-name="n" unicode="n" horiz-adv-x="474" 
d="M394 106v-8q0 -5 0.5 -19.5t-2.5 -29.5t-10.5 -27t-23.5 -12q-29 0 -35 23q1 8 1.5 17.5t0.5 20.5q0 19 -1.5 43t-3.5 53l-8 48q-4 24 -13 37.5t-20 20t-22.5 8t-19.5 1.5q-30 0 -51 -17.5t-35 -68.5q-1 -17 -2.5 -37t-5.5 -44q2 -36 6 -92q0 -31 -35 -31q-14 0 -21.5 8
t-11 20.5t-4.5 26.5t-1 26q0 11 1 22t3 23l9 103q1 11 3.5 24t6.5 29q-3 22 -18 52v4q0 11 10.5 21t24.5 10t23 -9.5t23 -31.5q8 7 26.5 13.5t42.5 6.5q54 0 93 -23t50 -82l5 -37.5t4.5 -27t5 -27t5.5 -37.5z" />
    <glyph glyph-name="o" unicode="o" horiz-adv-x="422" 
d="M325 23q-19 -13 -101 -30l-42 8q-8 3 -28.5 15t-42 35t-38 58t-16.5 83q0 39 22 69.5t67 65.5q24 6 47 6q67 0 123 -45q48 -66 48 -145q0 -62 -39 -120zM234 267q-15 7 -32 7q-12 0 -25.5 -6t-25 -18t-18.5 -30.5t-7 -43.5q0 -20 5.5 -40t17 -37t29.5 -27.5t43 -10.5
q23 0 52 12q25 31 25 74q0 95 -64 120z" />
    <glyph glyph-name="p" unicode="p" horiz-adv-x="465" 
d="M410 213v-6q-1 -15 -3.5 -30t-9.5 -29l-21 -42q-8 -11 -25 -23t-36.5 -22.5t-39 -17.5t-32.5 -7h-10q-4 0 -12.5 -1.5t-18.5 -4t-19.5 -4t-15.5 -1.5q-8 0 -11 1l-3 -68q-1 -6 0 -17.5t1 -31t-2.5 -48.5t-8.5 -70q-11 -8 -26 -8t-22.5 8t-10 19t-2.5 22.5v18.5q0 10 1 18
t1.5 16.5t1.5 17.5t1 22q0 11 -0.5 22t-0.5 25q0 28 1.5 49.5t3.5 36.5q-5 20 -5 56q0 29 1.5 52t5.5 38q-7 35 -10 59.5t-3 38.5q0 17 8.5 25.5t28.5 8.5q12 0 18.5 -4.5t15.5 -24.5q49 30 115 30q65 0 103 -26.5t41 -97.5zM342 217q0 51 -57 59q-3 0 -6.5 -0.5t-6.5 -0.5
q-8 0 -17.5 0.5t-20.5 1.5q-39 -5 -77 -38q1 -13 1.5 -28t0.5 -33l-3.5 -37t-1.5 -27q0 -17 2 -22t11 -5q3 0 11.5 1.5t18.5 3.5t19.5 3.5t12.5 1.5q35 2 57 16.5t34.5 33t17 38.5t4.5 32z" />
    <glyph glyph-name="q" unicode="q" horiz-adv-x="468" 
d="M388 -171q-7 -19 -30 -19q-13 0 -21 8q-11 37 -23 140q0 12 0.5 26t0.5 29t-0.5 31.5t-0.5 35.5q-37 -32 -67 -42.5t-59 -10.5t-53 11t-47 35l-20 42q-7 14 -10 30t-3 31q0 20 7 42.5t18.5 42.5t27 35.5t32.5 22.5q23 9 45 14t43 5q29 0 51 -4t36 -9q10 16 34 16
q21 0 26 -12t5 -35q0 -11 -1 -23.5t-3 -26.5q3 -24 3 -49q0 -38 -7 -72q4 -22 6 -83q-3 -11 -3 -26q0 -9 0.5 -20.5t1.5 -22t1.5 -19t0.5 -12.5v-8l3 -15t3.5 -22t2.5 -25t1 -23q0 -13 -1 -18zM315 212q0 4 0.5 9t0.5 12q0 5 1 11t-1 12t-8.5 10.5t-20.5 5.5l-35 6
q-8 2 -14.5 2h-14.5q-48 0 -74.5 -29t-26.5 -77q0 -45 22 -68t59 -25q49 14 81 41.5t32 67.5v10.5t-1 11.5z" />
    <glyph glyph-name="r" unicode="r" horiz-adv-x="382" 
d="M343 340q12 -8 12 -28q0 -39 -32 -39q-15 0 -30 7t-29 7q-16 0 -30.5 -6t-32.5 -24l-37 -36v-21q0 -15 -0.5 -33.5t-1.5 -39.5q1 -37 9 -100q-3 -36 -36 -36q-18 0 -25.5 9.5t-10.5 25.5t-3 36t-2 41q1 5 1 12v15v16l-6 73q-1 5 -1 9v8q0 8 2 18q-10 36 -10 53
q0 14 8 20.5t29 6.5q14 0 22 -9.5l20 -23.5l44 32q17 13 31.5 17t28.5 4q21 0 44 -5z" />
    <glyph glyph-name="s" unicode="s" horiz-adv-x="394" 
d="M334 109q-3 -29 -21 -55l-36 -51q-9 -8 -28 -13.5t-38.5 -9t-35 -5.5t-16.5 -2q-10 0 -25.5 3.5t-30.5 7.5t-26 7.5t-12 3.5h-1q-11 1 -23.5 5t-24 10t-19 13.5t-7.5 16.5q0 11 11 22.5t22 11.5q101 -40 161 -40q22 0 37.5 9t23.5 19l21 38q0 13 -7.5 26t-20 23.5
t-28.5 18.5t-33 11q-19 3 -38.5 11t-36 19t-27 24.5t-11.5 29.5q-1 0 -2 38q2 15 4 24t9 16.5t21.5 16.5l41.5 26q8 1 29.5 2.5t58.5 5.5q16 0 82 -24q10 -9 10 -27q0 -31 -21 -31q-1 0 -2 0.5t-3 0.5l-36 12q-27 8 -46 8q-28 0 -44.5 -3t-24.5 -7.5t-11 -9.5t-4 -9
q0 -3 -0.5 -5.5t-0.5 -5.5q0 -39 32 -48q158 -32 177 -134z" />
    <glyph glyph-name="t" unicode="t" horiz-adv-x="347" 
d="M319 369q8 -6 8 -23q0 -30 -25 -30h-4l-14.5 -1.5l-32.5 -3.5t-34.5 -4.5t-19.5 -4.5v-10q0 -11 -2 -29.5t-2 -33.5q0 -5 0.5 -10t1.5 -10q-4 -12 -4 -40q1 -38 2 -56.5t6 -27.5t17 -14l35 -15q24 -8 24 -28q0 -13 -9.5 -22t-24.5 -9q-7 0 -21 3t-28.5 8.5t-26.5 13
t-16 16.5q-12 26 -19 50.5t-7 51.5q0 28 1 42t2 22t2 14.5t1 18.5q0 8 -0.5 16.5t-0.5 16.5q0 11 0.5 18.5t1.5 12.5q-27 -2 -80 -16q-16 0 -28 8t-12 23q0 4 3 11t10.5 13.5t21 11t33.5 4.5h6q22 0 51 9q0 1 0.5 8.5t1 17l1 18.5t0.5 13v5q1 11 4 31.5t9 41t15.5 35.5
t23.5 15q27 0 33 -24q0 -2 -2.5 -14l-5.5 -27l-6 -29t-3 -18q0 -2 -1 -11t-1.5 -20t-1.5 -22t-1 -16q-2 0 27 3q5 0 9.5 0.5t8.5 0.5q3 0 5 -0.5t4 -0.5q9 1 17 1.5t15 0.5q22 0 32 -5z" />
    <glyph glyph-name="u" unicode="u" horiz-adv-x="489" 
d="M409 366q1 -11 1.5 -21t0.5 -21q0 -24 -2 -40.5t-5 -37l-7.5 -50t-8.5 -78.5q0 -3 -0.5 -5.5t-0.5 -5.5q0 -16 3 -35l4 -37q0 -26 -33 -26q-14 0 -21 7.5t-10 18t-3 22v19.5q0 10 1 15q-24 -24 -42.5 -37.5t-34 -19.5t-30 -7t-30.5 -1q-54 0 -82.5 30t-28.5 89v16t1 21
q-1 4 -1 13q0 13 1 24.5t4.5 28t10 41l17.5 63.5q11 11 25 11q13 0 22 -7t9 -21q0 -5 -3.5 -21l-7.5 -35t-7.5 -37.5t-3.5 -28.5v-5q-2 -14 -3.5 -26t-1.5 -20q0 -31 12.5 -53.5t47.5 -22.5q23 0 43 10t36 24.5t28 32t18 32.5q2 19 7 45.5t13 61.5q-1 6 -1 12v11
q0 12 1.5 24.5t5 22t10.5 16t19 6.5q22 0 27 -18z" />
    <glyph glyph-name="v" unicode="v" horiz-adv-x="452" 
d="M412 350q-1 -8 -6.5 -20.5l-15 -32.5l-24 -49t-32.5 -70q-29 -78 -54 -107q-4 -11 -12 -23.5t-19 -23.5t-24.5 -18t-27.5 -7q-36 0 -53 50q-13 14 -23.5 34t-18.5 39l-13.5 33t-6.5 17q-11 28 -11 59v8q-11 34 -16 58t-5 41q10 19 38 19q10 0 16 -5t9.5 -14.5t6 -24
t6.5 -32.5q8 -41 17.5 -70.5t19.5 -52t20.5 -41t22.5 -37.5q14 15 23 26t14.5 21t9.5 20t7 24q10 16 14.5 29.5t12.5 34t23.5 53t45.5 85.5q7 10 20 10q15 0 25.5 -10.5t10.5 -22.5z" />
    <glyph glyph-name="w" unicode="w" horiz-adv-x="648" 
d="M620 364q-1 -6 -5 -21.5t-9.5 -32.5t-10 -33t-5.5 -25l-16.5 -42l-18.5 -48q0 -3 -7 -20.5l-16.5 -39.5l-19 -42.5t-14.5 -28.5q-27 -31 -59 -39q-29 16 -63 93q-6 14 -18 47.5t-29 87.5q-22 -44 -42.5 -80t-38.5 -62t-34 -41t-28 -16q-13 8 -30 31l-30 40q-4 9 -10.5 26
l-13.5 35.5l-13.5 34.5t-10.5 24q-3 7 -8 23.5t-9.5 35t-7.5 35t-3 24.5q0 15 8.5 23t21.5 8q25 0 36 -17l9 -49q6 -32 16 -51q28 -101 52 -131q3 3 10 15l14.5 25.5l14 25.5t8.5 14q12 10 27 42l18 38q32 50 64 58q2 -2 7 -13t10 -24.5t10.5 -25t8.5 -14.5q12 -28 23 -71.5
t41 -107.5q16 25 22.5 42t11 32.5t9 34.5t15.5 49t15.5 43.5t7.5 24.5l7.5 26.5t15.5 48.5q15 22 33 22q24 0 34 -34z" />
    <glyph glyph-name="x" unicode="x" horiz-adv-x="468" 
d="M417 64q3 -6 3 -12q0 -15 -10 -27.5t-21 -12.5t-50 36q-15 23 -26 34.5l-21.5 21.5l-22.5 22.5t-31 37.5l-50 -62l-23.5 -38t-17 -28t-15.5 -25.5t-20 -29.5q-7 -7 -20 -7q-14 0 -24.5 7.5t-10.5 19.5q0 5 4.5 13.5t10.5 18l12 19.5t9 19q10 16 19 28.5l20 27l26 34
l36 48.5q-11 7 -18 13.5l-17 15.5l-25 21.5t-42 30.5q-20 14 -28.5 22.5t-8.5 20.5q0 34 32 34q9 0 16 -4l53 -41q4 -6 16.5 -16.5t26 -20.5l24 -17.5t11.5 -8.5q13 10 22.5 20.5t16 18.5t9.5 13t3 4q20 29 32.5 41.5t23.5 12.5q32 0 32 -28q0 -15 -22 -43l-43 -54l-28 -30
q20 -27 69 -76z" />
    <glyph glyph-name="y" unicode="y" horiz-adv-x="473" 
d="M423 305q-1 -20 -5 -35.5t-11.5 -31.5t-17 -34.5t-20.5 -45.5q-6 -39 -22.5 -72t-36 -63l-38.5 -58.5t-29 -58.5q-16 -22 -25 -38.5l-17 -31.5t-19 -30.5t-32 -36.5q-6 -2 -12 -2q-13 0 -24.5 7.5t-11.5 18.5q0 6 4 11l65 97q3 9 12 26l20 37l21 39.5t13 31.5
q-7 4 -17 13.5l-21 20l-21.5 20t-19.5 13.5q-18 25 -28.5 34.5l-21.5 19.5t-25.5 29.5t-41.5 64.5q-1 2 -1 6q0 13 9.5 25t23.5 12q10 0 25 -15t29.5 -33.5l26.5 -35l15 -20.5q6 -6 18.5 -20t27.5 -29t29.5 -28t23.5 -17q8 10 21.5 44.5l28.5 71.5q11 28 24.5 56.5
t15.5 51.5q17 11 33 11q28 0 32 -25z" />
    <glyph glyph-name="z" unicode="z" horiz-adv-x="399" 
d="M332 -13h-3q-5 0 -16.5 1.5t-25 3l-26 3t-18.5 1.5q-15 0 -36.5 2t-41.5 4.5l-35.5 4.5t-18.5 2q-53 20 -71 50q4 17 35 60q27 22 64 64q38 31 66.5 59.5t45.5 54.5q-11 4 -25.5 6t-35.5 2q-2 0 -14 -1.5t-27 -3t-30.5 -2.5t-25.5 -1q-18 3 -18 33q0 12 1 18t10.5 9.5
t30.5 6.5t61 8q29 0 69 -6.5t80 -20.5q3 -17 3 -29q0 -13 -6 -26t-14 -24t-16.5 -20t-14.5 -14q-5 -8 -14.5 -18.5t-19.5 -20.5t-20 -17.5t-16 -9.5q-6 -8 -18.5 -19.5l-26 -24.5l-25 -25t-13.5 -19q17 -8 48.5 -12.5t64 -6.5t58 -3t29.5 -1h6q24 -11 24 -35q0 -27 -24 -33z
" />
    <glyph glyph-name="braceleft" unicode="{" horiz-adv-x="420" 
d="M332 585l-48 -15.5t-26 -15.5t-13 -27.5t-8 -51.5q-3 -9 -3 -26q0 -12 1.5 -30.5t1.5 -34.5q0 -41 -10 -65.5t-31 -48.5q15 -12 28 -48t13 -106q0 -13 -1 -26t-1 -27q0 -8 15 -75q31 -34 75 -34q22 -4 22 -29q0 -30 -27 -30q-26 0 -74 22q-37 6 -54 35t-19 64l-4 52
q1 5 1.5 28t0.5 64q0 8 -3 18l-6 20q-4 11 -9 23q-6 8 -16 13.5l-19.5 11t-16.5 12t-7 15.5q0 8 4 13t12 9.5t19 10t26 14.5q15 25 15 88q0 85 2 87q0 29 8 50l12 35q21 23 56 40t75 17q10 0 17 -10t7 -21q0 -17 -15 -21z" />
    <glyph glyph-name="bar" unicode="|" horiz-adv-x="388" 
d="M230 306q0 -7 1 -34.5t1 -76.5q0 -32 -4 -39q2 -9 2 -18v-20q0 -22 -2.5 -46.5t-3.5 -47.5q1 -11 1 -21v-20q0 -12 0.5 -26.5t-2 -27t-10 -20.5t-22.5 -8t-22.5 9.5t-10.5 24.5t-3 33.5v36.5q0 33 4.5 77t4.5 85q0 39 -6 72q1 3 2 21t2.5 39.5t2.5 40.5t3 24q-4 13 -4 68
q0 16 -0.5 40.5t0.5 51t3.5 52t7.5 44.5q4 15 23 15q23 0 29 -12t6 -43q0 -14 -1 -31t-3 -38q0 -4 1 -48t1 -107q0 -14 -0.5 -26.5t-0.5 -23.5z" />
    <glyph glyph-name="braceright" unicode="}" horiz-adv-x="420" 
d="M326 267q0 -15 -16 -22.5t-45 -24.5q-15 -26 -15 -88q0 -85 -2 -87q-1 -16 -3 -28t-5 -22l-12 -35q-22 -23 -56.5 -40t-74.5 -17q-10 0 -17 9.5t-7 21.5q0 9 11.5 17t25.5 13.5t27 9t16 4.5q9 4 15 15.5t10 27.5t5.5 34t1.5 35q0 13 -1 31.5t-1 34.5q0 41 10 65t31 49
q-15 12 -28 48t-13 106q0 12 1 25.5t1 27.5q0 7 -15 75q-31 34 -75 34q-22 4 -22 29q0 30 27 30q26 0 74 -22q36 -6 53 -35t20 -64l4 -52q-1 -5 -1.5 -28t-0.5 -64q0 -8 2.5 -19t6.5 -20q4 -11 9 -22q5 -7 15 -12.5l19.5 -10.5t17 -12t7.5 -17z" />
    <glyph glyph-name="asciitilde" unicode="~" horiz-adv-x="793" 
d="M672 325q0 -6 -4 -14t-8.5 -15t-8.5 -12.5t-4 -8.5q-29 -29 -50.5 -47.5t-38 -28.5t-30 -13.5t-26.5 -3.5q-2 0 -13.5 0.5t-27.5 5t-34 15t-31 29.5q-29 41 -50 52q-11 24 -60 24q-34 0 -61.5 -25.5t-56.5 -75.5q-8 -6 -18 -6q-30 0 -30 32q0 4 0.5 7t3 8.5t8.5 14
t18 23.5l28 34t16 17.5t10 8t11 6.5q24 13 51 18q37 -3 60 -8t39.5 -15.5t32.5 -27.5l40 -44q27 -30 54 -30q16 0 33.5 8.5t34.5 23t31.5 32.5t24.5 37q7 15 23 15q14 0 23.5 -11t9.5 -25z" />
    <glyph glyph-name="uniAC00" unicode="&#xac00;" 
d="M802 268q14 9 14 21q0 13 -4 20t-10.5 11t-13.5 5t-13 1q-14 0 -27.5 -1.5t-21.5 -3.5q-6 2 -11 2q-16 0 -29 -2t-25.5 -4.5t-26 -4.5t-30.5 -2h-12v26q0 18 -2 28q1 3 1 13q0 11 -1 29t-3.5 38t-6.5 39.5t-10 33.5q-12 13 -32 13q-38 0 -38 -25q0 -5 0.5 -7t1.5 -5.5
t3 -11.5t5 -24q5 -26 9 -35q-1 -4 -1.5 -8.5t-0.5 -10.5q0 -8 1 -19t2.5 -21.5t2.5 -19t1 -11.5q0 -6 -0.5 -16.5t-1.5 -26.5v-41v-3q0 -2 -0.5 -9t-1.5 -16t-1.5 -18.5t-0.5 -16.5q0 -14 3 -21q-1 -5 -3 -14t-3.5 -19.5l-3 -21t-1.5 -17.5q0 -14 8 -19.5t22 -5.5
q27 0 35 20l8 71q3 27 4.5 48l2.5 35q5 2 18.5 3.5t33.5 3.5l52 5h9q8 0 18 1t24 3zM344 414q-11 9 -27 15.5t-33 6.5h-8q-18 3 -32.5 6.5t-31 6t-39 4.5t-56.5 2q-7 -2 -16 -12t-9 -25q0 -11 6 -21q35 -7 59.5 -7t46.5 -8h6q33 0 46.5 -7.5t13.5 -8.5q0 -8 -6 -22.5
t-15 -29.5t-18.5 -28.5t-15.5 -19.5q-10 -20 -21.5 -35.5t-28.5 -40.5q4 -12 9 -23.5t22 -11.5q9 0 21 3q7 10 22.5 26.5t19.5 29.5l13 20l16 24t9.5 16l6.5 13.5t6 15.5q7 9 13.5 21.5t12 25.5t8.5 24t3 19q0 10 -3 21z" />
    <glyph glyph-name="uniAC01" unicode="&#xac01;" 
d="M802 388q14 9 14 21q0 13 -4 20t-10.5 11t-13.5 5t-13 1q-14 0 -27.5 -1.5t-21.5 -3.5q-6 2 -11 2q-16 0 -29 -2t-25.5 -4.5t-26 -4.5t-30.5 -2h-12v26q0 18 -2 28q1 3 1 13q0 11 -1 29t-3.5 38t-6.5 39.5t-10 33.5q-12 13 -32 13q-38 0 -38 -25q0 -5 0.5 -7t1.5 -5.5
t3 -11.5t5 -24q5 -26 9 -35q-2 -10 -2 -17q0 -14 3.5 -31t3.5 -22q0 -12 -1 -30.5t-1 -33.5v-3q0 -2 -0.5 -9t-1.5 -16t-1.5 -18.5t-0.5 -16.5q0 -14 3 -21q-1 -5 -3 -14t-3.5 -19.5l-3 -21t-1.5 -17.5q0 -14 8 -19.5t22 -5.5q27 0 35 20q1 9 3.5 22t5 29t4.5 32t2 31
q5 2 18.5 3.5t33.5 3.5l52 5h9q8 0 18 1t24 3zM344 534q-11 9 -27 15.5t-33 6.5h-8q-18 3 -32.5 6.5t-31 6t-39 4.5t-56.5 2q-7 -2 -16 -12t-9 -25q0 -11 6 -21q35 -7 59.5 -7t46.5 -8h6q33 0 46.5 -7.5t13.5 -8.5q0 -8 -6 -22.5t-15 -29.5t-18.5 -28.5t-15.5 -19.5
q-10 -20 -21.5 -35.5t-28.5 -40.5q4 -12 9 -23.5t22 -11.5q9 0 21 3q7 10 22.5 26.5t19.5 29.5l13 20l16 24t9.5 16l6.5 13.5t6 15.5q7 9 13.5 21.5t12 25.5t8.5 24t3 19q0 10 -3 21zM504 91q4 13 4 25q0 21 -16 33.5t-39 12.5q-4 0 -8 -2l-24 4.5t-25 2.5q-9 0 -18 -3
q-6 2 -12 2h-11q-13 0 -23.5 -1.5t-21.5 -1.5q-7 0 -11 1q-42 -5 -57 -15t-15 -26q0 -10 8 -18.5t13 -11.5q9 0 19.5 2.5t25.5 2.5q3 0 6.5 -0.5t7.5 -0.5q7 2 21 3t24 1h8q3 0 6.5 0.5t7.5 0.5q9 0 19.5 -1t19.5 -2.5t15.5 -3.5t6.5 -5v-13t-2 -19l-5 -44v-8
q0 -20 -8.5 -44.5t-8.5 -50.5q17 -13 34 -13q11 0 17 2.5t9.5 8.5t6 16t7.5 25q6 17 9.5 31t6 28.5t3.5 30t1 34.5q0 5 -0.5 9t-0.5 8z" />
    <glyph glyph-name="uniAC04" unicode="&#xac04;" 
d="M802 388q14 9 14 21q0 13 -4 20t-10.5 11t-13.5 5t-13 1q-14 0 -27.5 -1.5t-21.5 -3.5q-6 2 -11 2q-16 0 -29 -2t-25.5 -4.5t-26 -4.5t-30.5 -2h-12v26q0 18 -2 28q1 3 1 13q0 11 -1 29t-3.5 38t-6.5 39.5t-10 33.5q-12 13 -32 13q-38 0 -38 -25q0 -5 0.5 -7t1.5 -5.5
t3 -11.5t5 -24q5 -26 9 -35q-2 -10 -2 -17q0 -14 3.5 -31t3.5 -22q0 -12 -1 -30.5t-1 -33.5v-3q0 -2 -0.5 -9t-1.5 -16t-1.5 -18.5t-0.5 -16.5q0 -14 3 -21q-1 -5 -3 -14t-3.5 -19.5l-3 -21t-1.5 -17.5q0 -14 8 -19.5t22 -5.5q27 0 35 20q1 9 3.5 22t5 29t4.5 32t2 31
q5 2 18.5 3.5t33.5 3.5l52 5h9q8 0 18 1t24 3zM344 534q-11 9 -27 15.5t-33 6.5h-8q-18 3 -32.5 6.5t-31 6t-39 4.5t-56.5 2q-7 -2 -16 -12t-9 -25q0 -11 6 -21q35 -7 59.5 -7t46.5 -8h6q33 0 46.5 -7.5t13.5 -8.5q0 -8 -6 -22.5t-15 -29.5t-18.5 -28.5t-15.5 -19.5
q-10 -20 -21.5 -35.5t-28.5 -40.5q4 -12 9 -23.5t22 -11.5q9 0 21 3q7 10 22.5 26.5t19.5 29.5l13 20l16 24t9.5 16l6.5 13.5t6 15.5q7 9 13.5 21.5t12 25.5t8.5 24t3 19q0 10 -3 21zM504 -42q15 16 15 29q0 10 -8 18.5t-13 11.5q-36 -4 -57 -7t-45 -3q-10 0 -23 0.5
t-25.5 0.5t-23 0.5t-16.5 0.5q-7 21 -6.5 39t-1.5 49v18q0 11 -1 24t-3 23q-11 6 -19 9.5t-16 3.5q-6 0 -11.5 -2t-10 -9t-7 -20.5t-2.5 -36.5q0 -31 2.5 -51.5t6.5 -46.5q-1 -5 -1 -15q0 -29 15 -48q8 -3 19.5 -4.5t20.5 -1.5q11 0 14 2q11 -1 25 -2t28 -1q30 0 51 1.5
t37.5 3.5t29 5.5t26.5 8.5z" />
    <glyph glyph-name="uniAC07" unicode="&#xac07;" 
d="M802 388q14 9 14 21q0 13 -4 20t-10.5 11t-13.5 5t-13 1q-14 0 -27.5 -1.5t-21.5 -3.5q-6 2 -11 2q-16 0 -29 -2t-25.5 -4.5t-26 -4.5t-30.5 -2h-12v26q0 18 -2 28q1 3 1 13q0 11 -1 29t-3.5 38t-6.5 39.5t-10 33.5q-12 13 -32 13q-38 0 -38 -25q0 -5 0.5 -7t1.5 -5.5
t3 -11.5t5 -24q5 -26 9 -35q-2 -10 -2 -17q0 -14 3.5 -31t3.5 -22q0 -12 -1 -30.5t-1 -33.5v-3q0 -2 -0.5 -9t-1.5 -16t-1.5 -18.5t-0.5 -16.5q0 -14 3 -21q-1 -5 -3 -14t-3.5 -19.5l-3 -21t-1.5 -17.5q0 -14 8 -19.5t22 -5.5q27 0 35 20q1 9 3.5 22t5 29t4.5 32t2 31
q5 2 18.5 3.5t33.5 3.5l52 5h9q8 0 18 1t24 3zM344 534q-11 9 -27 15.5t-33 6.5h-8q-18 3 -32.5 6.5t-31 6t-39 4.5t-56.5 2q-7 -2 -16 -12t-9 -25q0 -11 6 -21q35 -7 59.5 -7t46.5 -8h6q33 0 46.5 -7.5t13.5 -8.5q0 -8 -6 -22.5t-15 -29.5t-18.5 -28.5t-15.5 -19.5
q-10 -20 -21.5 -35.5t-28.5 -40.5q4 -12 9 -23.5t22 -11.5q9 0 21 3q7 10 22.5 26.5t19.5 29.5l13 20l16 24t9.5 16l6.5 13.5t6 15.5q7 9 13.5 21.5t12 25.5t8.5 24t3 19q0 10 -3 21zM541 -173q17 17 17 29q0 10 -7.5 18.5t-12.5 12.5q-12 0 -27 -2l-23 -3q-19 3 -36 3
t-38 1l-48 4q-18 1 -26 3t-11 7.5t-2 17t1 31.5q0 41 4 53q-3 15 -3 28q0 17 3 30t5 24q27 4 45 5.5t40 2.5q11 3 23 4t22 3.5t16.5 9t6.5 21.5q0 38 -23 39q-11 -3 -30 -6.5t-38.5 -7.5t-37.5 -6.5t-28 -2.5h-26h-16t-12 -1l-13 -49q-3 -10 -3.5 -18.5t-1.5 -15.5
q0 -14 5 -22q0 -11 0.5 -20.5t0.5 -17.5q0 -9 -0.5 -16.5t-0.5 -14.5l-3 -64q-4 -11 -4 -21q0 -26 17.5 -40.5t42.5 -14.5q2 0 2.5 0.5t2.5 0.5q14 -2 33 -6t34 -4q6 0 14 2q11 -3 22 -4t23 -1q27 0 51 2.5t40 5.5z" />
    <glyph glyph-name="uniAC08" unicode="&#xac08;" 
d="M802 388q14 9 14 21q0 13 -4 20t-10.5 11t-13.5 5t-13 1q-14 0 -27.5 -1.5t-21.5 -3.5q-6 2 -11 2q-16 0 -29 -2t-25.5 -4.5t-26 -4.5t-30.5 -2h-12v26q0 18 -2 28q1 3 1 13q0 11 -1 29t-3.5 38t-6.5 39.5t-10 33.5q-12 13 -32 13q-38 0 -38 -25q0 -5 0.5 -7t1.5 -5.5
t3 -11.5t5 -24q5 -26 9 -35q-2 -10 -2 -17q0 -14 3.5 -31t3.5 -22q0 -12 -1 -30.5t-1 -33.5v-3q0 -2 -0.5 -9t-1.5 -16t-1.5 -18.5t-0.5 -16.5q0 -14 3 -21q-1 -5 -3 -14t-3.5 -19.5l-3 -21t-1.5 -17.5q0 -14 8 -19.5t22 -5.5q27 0 35 20q1 9 3.5 22t5 29t4.5 32t2 31
q5 2 18.5 3.5t33.5 3.5l52 5h9q8 0 18 1t24 3zM344 534q-11 9 -27 15.5t-33 6.5h-8q-18 3 -32.5 6.5t-31 6t-39 4.5t-56.5 2q-7 -2 -16 -12t-9 -25q0 -11 6 -21q35 -7 59.5 -7t46.5 -8h6q33 0 46.5 -7.5t13.5 -8.5q0 -8 -6 -22.5t-15 -29.5t-18.5 -28.5t-15.5 -19.5
q-10 -20 -21.5 -35.5t-28.5 -40.5q4 -12 9 -23.5t22 -11.5q9 0 21 3q7 10 22.5 26.5t19.5 29.5l13 20l16 24t9.5 16l6.5 13.5t6 15.5q7 9 13.5 21.5t12 25.5t8.5 24t3 19q0 10 -3 21zM582 -162q-6 3 -20 3q-20 0 -40 -3t-26 -3q-21 -3 -32.5 -4t-21.5 -1q-5 0 -9.5 0.5
t-9.5 0.5q-6 -3 -34 -3q-23 0 -46 0.5t-42 2.5q-22 1 -43 3q-1 3 -1 11q1 14 2 30t3 27l5 37q3 26 11 36q14 3 26.5 5t26 3.5t30.5 2.5t40 1h51q4 1 11.5 3.5t15.5 4.5t15 4t10 3q15 27 21 54t11 55q0 8 -4.5 26t-15.5 28q-21 5 -41.5 11t-28.5 6q-3 -1 -13 -1h-10t-12 1
l-42 4q-10 6 -30.5 6.5t-30.5 3.5q-9 -5 -13 -15t-4 -20q0 -15 12.5 -23t28.5 -11.5t30.5 -4t18.5 -0.5q2 -1 11 -3t25 -4l47 -7q0 -16 -5 -31.5t-11 -26.5q-7 -1 -17 -1h-24h-9q-10 0 -17 -1t-12 -3q-5 1 -16 1q-29 0 -51 -4.5t-50 -4.5h-8q-20 0 -32 -14t-12 -40
q0 -6 3 -9l-9 -73q-5 -45 -7.5 -59t-2.5 -12q0 -11 6 -21.5t14.5 -19t18.5 -13.5t18 -6q30 -2 59 -3.5t53 -2.5t39.5 -1h17.5q24 0 50.5 2.5t50.5 5.5t41.5 5.5t22.5 2.5q6 2 10.5 12t4.5 26q0 13 -8 21z" />
    <glyph glyph-name="uniAC09" unicode="&#xac09;" 
d="M802 388q14 9 14 21q0 13 -4 20t-10.5 11t-13.5 5t-13 1q-14 0 -27.5 -1.5t-21.5 -3.5q-6 2 -11 2q-16 0 -29 -2t-25.5 -4.5t-26 -4.5t-30.5 -2h-12v26q0 18 -2 28q1 3 1 13q0 11 -1 29t-3.5 38t-6.5 39.5t-10 33.5q-12 13 -32 13q-38 0 -38 -25q0 -5 0.5 -7t1.5 -5.5
t3 -11.5t5 -24q5 -26 9 -35q-2 -10 -2 -17q0 -14 3.5 -31t3.5 -22q0 -12 -1 -30.5t-1 -33.5v-3q0 -2 -0.5 -9t-1.5 -16t-1.5 -18.5t-0.5 -16.5q0 -14 3 -21q-1 -5 -3 -14t-3.5 -19.5l-3 -21t-1.5 -17.5q0 -14 8 -19.5t22 -5.5q27 0 35 20q1 9 3.5 22t5 29t4.5 32t2 31
q5 2 18.5 3.5t33.5 3.5l52 5h9q8 0 18 1t24 3zM344 534q-11 9 -27 15.5t-33 6.5h-8q-18 3 -32.5 6.5t-31 6t-39 4.5t-56.5 2q-7 -2 -16 -12t-9 -25q0 -11 6 -21q35 -7 59.5 -7t46.5 -8h6q33 0 46.5 -7.5t13.5 -8.5q0 -8 -6 -22.5t-15 -29.5t-18.5 -28.5t-15.5 -19.5
q-10 -20 -21.5 -35.5t-28.5 -40.5q4 -12 9 -23.5t22 -11.5q9 0 21 3q7 10 22.5 26.5t19.5 29.5l13 20l16 24t9.5 16l6.5 13.5t6 15.5q7 9 13.5 21.5t12 25.5t8.5 24t3 19q0 10 -3 21zM638 -14q2 10 2 20q0 29 -0.5 53.5t-11.5 41.5q-6 3 -17 7t-23 7.5t-24 6t-21 2.5t-12 -1
q-23 2 -43.5 5t-36.5 3q-25 -11 -25 -38q0 -22 22 -28h5q6 0 21 -2l32.5 -4.5t34 -5.5l27.5 -5q5 -8 5 -22q0 -7 -0.5 -14.5t-0.5 -15.5q0 -7 1 -14t1 -14q0 -14 -3.5 -28t-3.5 -28q0 -2 -1.5 -9.5t-3.5 -16.5t-3.5 -18t-1.5 -14q0 -9 12 -15t19 -6q14 0 33 11q0 3 2 12
t4.5 19t4 20t1.5 16v7q6 22 6 44v12t-1 12zM376 81q0 8 -4.5 26t-15.5 28q-21 5 -41.5 11t-28.5 6q-2 -1 -9 -1q-11 0 -28 2t-30 3q-4 2 -15.5 3.5t-25 2.5t-25 2t-15.5 2q-9 -5 -13 -15t-4 -20q0 -16 14.5 -24t33.5 -11.5t37 -3.5h25q20 -3 36 -7q14 -3 25.5 -6t11.5 -4
q0 -14 -5.5 -24t-10.5 -21q-33 -2 -60 -5t-56 -3q-10 -5 -33 -5h-8q-43 0 -43 -51q0 -8 4 -12q0 -2 -1.5 -22t-3 -43.5t-2.5 -43.5l-1 -20v-8q0 -9 2 -19.5t7 -21.5q23 -13 39 -13.5t31 -0.5h56.5t37.5 1.5t29 5t31 9.5t30.5 8t20.5 4.5t12 7.5t4 16q0 23 -12 37
q-29 0 -49 -4l-40.5 -8.5t-47.5 -8.5t-70 -4q-5 0 -7 4.5t-3 11t-1 14v12.5q0 4 0.5 7.5t0.5 6.5l6 73q26 5 57 8.5t54 3.5h20q4 1 11.5 3.5t15.5 4.5t15 4t10 3q15 27 21 49t11 50z" />
    <glyph glyph-name="uniAC0A" unicode="&#xac0a;" 
d="M802 388q14 9 14 21q0 13 -4 20t-10.5 11t-13.5 5t-13 1q-14 0 -27.5 -1.5t-21.5 -3.5q-6 2 -11 2q-16 0 -29 -2t-25.5 -4.5t-26 -4.5t-30.5 -2h-12v26q0 18 -2 28q1 3 1 13q0 11 -1 29t-3.5 38t-6.5 39.5t-10 33.5q-12 13 -32 13q-38 0 -38 -25q0 -5 0.5 -7t1.5 -5.5
t3 -11.5t5 -24q5 -26 9 -35q-2 -10 -2 -17q0 -14 3.5 -31t3.5 -22q0 -12 -1 -30.5t-1 -33.5v-3q0 -2 -0.5 -9t-1.5 -16t-1.5 -18.5t-0.5 -16.5q0 -14 3 -21q-1 -5 -3 -14t-3.5 -19.5l-3 -21t-1.5 -17.5q0 -14 8 -19.5t22 -5.5q27 0 35 20q1 9 3.5 22t5 29t4.5 32t2 31
q5 2 18.5 3.5t33.5 3.5l52 5h9q8 0 18 1t24 3zM344 534q-11 9 -27 15.5t-33 6.5h-8q-18 3 -32.5 6.5t-31 6t-39 4.5t-56.5 2q-7 -2 -16 -12t-9 -25q0 -11 6 -21q35 -7 59.5 -7t46.5 -8h6q33 0 46.5 -7.5t13.5 -8.5q0 -8 -6 -22.5t-15 -29.5t-18.5 -28.5t-15.5 -19.5
q-10 -20 -21.5 -35.5t-28.5 -40.5q4 -12 9 -23.5t22 -11.5q9 0 21 3q7 10 22.5 26.5t19.5 29.5l13 20l16 24t9.5 16l6.5 13.5t6 15.5q7 9 13.5 21.5t12 25.5t8.5 24t3 19q0 10 -3 21zM653 -34q-1 9 -1 14v6v40q3 12 3 24q0 25 -11 45q-12 3 -20 3.5t-16 0.5t-17 0.5t-22 2.5
q-15 3 -20.5 4t-8.5 1.5t-6.5 0.5h-13.5h-34h-13h-14t-11 -1q-4 -7 -11 -25t-7 -36q0 -13 -2 -30.5t-6 -26.5q0 -22 -3.5 -42t-3.5 -43v-15t6 -13t20.5 -9.5t43.5 -3.5h8t8 1q7 -2 14.5 -3t16.5 -1q17 0 49 4.5t64 14.5q3 8 5.5 30.5t2.5 47.5v9zM375 -208q9 3 9 22
q0 23 -12 37q-29 0 -49 -4l-40.5 -8.5t-47.5 -8.5t-70 -4q-5 0 -7 4.5t-3 11t-1 14v12.5q0 4 0.5 7.5t0.5 6.5l6 73q26 5 56.5 8.5t47.5 3.5h17q4 1 11.5 3.5t15.5 4.5t15 4t10 3q15 27 21 49t11 50q0 8 -4.5 26t-15.5 28q-21 5 -41.5 11t-28.5 6q-2 -1 -8 -1q-10 0 -23 2
t-26 3q-4 2 -15.5 3.5t-25 2.5t-25 2t-15.5 2q-9 -5 -13 -15t-4 -20q0 -16 14.5 -24t33.5 -11.5t37 -3.5h25l9.5 -2t21.5 -5t22 -6t10 -4q0 -14 -5.5 -24t-10.5 -21q-33 -2 -55 -5t-51 -3q-10 -5 -33 -5h-8q-43 0 -43 -51q0 -8 4 -12q0 -2 -1.5 -22t-3 -43.5t-2.5 -43.5
l-1 -20v-8q0 -9 2 -19.5t7 -21.5q23 -13 39 -13.5t31 -0.5h56.5t37.5 1.5t29 5t31 9.5q42 14 58 14zM589 -10q1 -5 1 -9.5v-8.5q0 -11 -1.5 -18.5l-3.5 -17.5q-9 -1 -14 -2t-9 -2t-8.5 -2t-12.5 -1q-2 0 -5 0.5t-6 0.5q-4 0 -7 -0.5t-6 -0.5q-8 0 -16 0.5t-20 1.5q1 10 2 25
t2.5 31.5t4 32.5t7.5 27q18 1 35 0q14 -1 28.5 -3t22.5 -6q1 -9 4 -18t3 -19q0 -7 -1 -11z" />
    <glyph glyph-name="uniAC10" unicode="&#xac10;" 
d="M802 388q14 9 14 21q0 13 -4 20t-10.5 11t-13.5 5t-13 1q-14 0 -27.5 -1.5t-21.5 -3.5q-6 2 -11 2q-16 0 -29 -2t-25.5 -4.5t-26 -4.5t-30.5 -2h-12v26q0 18 -2 28q1 3 1 13q0 11 -1 29t-3.5 38t-6.5 39.5t-10 33.5q-12 13 -32 13q-38 0 -38 -25q0 -5 0.5 -7t1.5 -5.5
t3 -11.5t5 -24q5 -26 9 -35q-2 -10 -2 -17q0 -14 3.5 -31t3.5 -22q0 -12 -1 -30.5t-1 -33.5v-3q0 -2 -0.5 -9t-1.5 -16t-1.5 -18.5t-0.5 -16.5q0 -14 3 -21q-1 -5 -3 -14t-3.5 -19.5l-3 -21t-1.5 -17.5q0 -14 8 -19.5t22 -5.5q27 0 35 20q1 9 3.5 22t5 29t4.5 32t2 31
q5 2 18.5 3.5t33.5 3.5l52 5h9q8 0 18 1t24 3zM344 534q-11 9 -27 15.5t-33 6.5h-8q-18 3 -32.5 6.5t-31 6t-39 4.5t-56.5 2q-7 -2 -16 -12t-9 -25q0 -11 6 -21q35 -7 59.5 -7t46.5 -8h6q33 0 46.5 -7.5t13.5 -8.5q0 -8 -6 -22.5t-15 -29.5t-18.5 -28.5t-15.5 -19.5
q-10 -20 -21.5 -35.5t-28.5 -40.5q4 -12 9 -23.5t22 -11.5q9 0 21 3q7 10 22.5 26.5t19.5 29.5l13 20l16 24t9.5 16l6.5 13.5t6 15.5q7 9 13.5 21.5t12 25.5t8.5 24t3 19q0 10 -3 21zM504 78v9q0 22 -2.5 36t-5.5 22q-22 8 -45 10t-40 4q-9 3 -19 4t-21 1q-12 0 -22.5 -1
t-17.5 -3q-4 1 -8 1h-8q-26 0 -40.5 -3t-21 -9t-8 -15t-1.5 -21q0 -17 2 -32t5 -30t5 -32.5t2 -40.5q0 -18 7 -35.5t11 -25.5q5 -1 11 -1.5t14 -0.5q3 0 6.5 0.5t7.5 0.5h35q6 0 11.5 -0.5t10.5 -0.5q4 0 13.5 1.5t20.5 3.5t22 3.5t19 1.5h10q13 0 29 4q7 11 9 27.5t2 30.5
v11q2 18 4 40t3 40zM437 88q1 -5 1.5 -8.5t0.5 -7.5q0 -9 -1.5 -18l-3.5 -20v-5q0 -13 -2 -22.5t-3 -20.5q-7 -4 -20 -5.5t-26.5 -2t-24 -0.5h-13.5h-9t-9 -1q-6 12 -8.5 28.5t-3.5 33.5t-2 31.5t-2 22.5q8 1 16 1.5t16 0.5t14.5 -0.5t12.5 -0.5h9q19 0 30 -2t28 -4z" />
    <glyph glyph-name="uniAC11" unicode="&#xac11;" 
d="M802 388q14 9 14 21q0 13 -4 20t-10.5 11t-13.5 5t-13 1q-14 0 -27.5 -1.5t-21.5 -3.5q-6 2 -11 2q-16 0 -29 -2t-25.5 -4.5t-26 -4.5t-30.5 -2h-12v26q0 18 -2 28q1 3 1 13q0 11 -1 29t-3.5 38t-6.5 39.5t-10 33.5q-12 13 -32 13q-38 0 -38 -25q0 -5 0.5 -7t1.5 -5.5
t3 -11.5t5 -24q5 -26 9 -35q-2 -10 -2 -17q0 -14 3.5 -31t3.5 -22q0 -12 -1 -30.5t-1 -33.5v-3q0 -2 -0.5 -9t-1.5 -16t-1.5 -18.5t-0.5 -16.5q0 -14 3 -21q-1 -5 -3 -14t-3.5 -19.5l-3 -21t-1.5 -17.5q0 -14 8 -19.5t22 -5.5q27 0 35 20q1 9 3.5 22t5 29t4.5 32t2 31
q5 2 18.5 3.5t33.5 3.5l52 5h9q8 0 18 1t24 3zM344 534q-11 9 -27 15.5t-33 6.5h-8q-18 3 -32.5 6.5t-31 6t-39 4.5t-56.5 2q-7 -2 -16 -12t-9 -25q0 -11 6 -21q35 -7 59.5 -7t46.5 -8h6q33 0 46.5 -7.5t13.5 -8.5q0 -8 -6 -22.5t-15 -29.5t-18.5 -28.5t-15.5 -19.5
q-10 -20 -21.5 -35.5t-28.5 -40.5q4 -12 9 -23.5t22 -11.5q9 0 21 3q7 10 22.5 26.5t19.5 29.5l13 20l16 24t9.5 16l6.5 13.5t6 15.5q7 9 13.5 21.5t12 25.5t8.5 24t3 19q0 10 -3 21zM558 -4q0 -1 -1.5 15t-3 35.5t-3 35.5t-1.5 15q1 3 1 9q0 32 -10.5 52t-28.5 20
q-10 0 -18.5 -7.5t-11.5 -13.5q0 -17 1.5 -28.5l3.5 -26t3.5 -34t1.5 -50.5l-45 -3q-16 -2 -26 -3t-14 -3h-11q-9 0 -21.5 -1.5l-24.5 -3t-21.5 -3t-10.5 -1.5q-2 0 -4 0.5t-5 0.5q-5 0 -13.5 -0.5t-17 -1.5t-15 -2t-8.5 -1q-1 5 -1 35v14q0 14 -2 22q0 3 0.5 11.5t1.5 18.5
t1.5 19t0.5 14q0 14 -9 20.5t-15 6.5q-29 0 -36 -26t-7 -86q0 -39 4 -51q-1 -5 -1 -11v-14q0 -11 0.5 -26t0.5 -27v-18t-1 -12q0 -10 3 -53l4 -60q-1 0 16 -1t39 -2.5t42.5 -3.5t26.5 -2q5 -1 12 -1h17t22 0.5t26 0.5h79q10 -3 19 -3q23 0 39 13.5t16 34.5q0 3 -2 7
q2 12 4.5 28.5t2.5 31.5q0 12 -3 21q2 9 2.5 19t0.5 21v38v11t1 10zM492 -45q0 -29 -0.5 -48t-2 -33.5t-3 -25t-3.5 -21.5q-10 -2 -40 -2q-41 0 -69 1t-38 4q-5 -1 -18 -1q-15 0 -31.5 1.5l-27.5 2.5q0 6 -1 17t-1 19v5q0 4 -0.5 12.5t-1 18t-0.5 17.5v13l113 10q7 4 57 7z
" />
    <glyph glyph-name="uniAC12" unicode="&#xac12;" 
d="M802 388q14 9 14 21q0 13 -4 20t-10.5 11t-13.5 5t-13 1q-14 0 -27.5 -1.5t-21.5 -3.5q-6 2 -11 2q-16 0 -29 -2t-25.5 -4.5t-26 -4.5t-30.5 -2h-12v26q0 18 -2 28q1 3 1 13q0 11 -1 29t-3.5 38t-6.5 39.5t-10 33.5q-12 13 -32 13q-38 0 -38 -25q0 -5 0.5 -7t1.5 -5.5
t3 -11.5t5 -24q5 -26 9 -35q-2 -10 -2 -17q0 -14 3.5 -31t3.5 -22q0 -12 -1 -30.5t-1 -33.5v-3q0 -2 -0.5 -9t-1.5 -16t-1.5 -18.5t-0.5 -16.5q0 -14 3 -21q-1 -5 -3 -14t-3.5 -19.5l-3 -21t-1.5 -17.5q0 -14 8 -19.5t22 -5.5q27 0 35 20q1 9 3.5 22t5 29t4.5 32t2 31
q5 2 18.5 3.5t33.5 3.5l52 5h9q8 0 18 1t24 3zM344 534q-11 9 -27 15.5t-33 6.5h-8q-18 3 -32.5 6.5t-31 6t-39 4.5t-56.5 2q-7 -2 -16 -12t-9 -25q0 -11 6 -21q35 -7 59.5 -7t46.5 -8h6q33 0 46.5 -7.5t13.5 -8.5q0 -8 -6 -22.5t-15 -29.5t-18.5 -28.5t-15.5 -19.5
q-10 -20 -21.5 -35.5t-28.5 -40.5q4 -12 9 -23.5t22 -11.5q9 0 21 3q7 10 22.5 26.5t19.5 29.5l13 20l16 24t9.5 16l6.5 13.5t6 15.5q7 9 13.5 21.5t12 25.5t8.5 24t3 19q0 10 -3 21zM677 -90q-7 17 -21 31t-23 18l-13.5 13.5t-20.5 22.5q-16 8 -21.5 13.5t-16.5 15.5
q1 1 6 11t10.5 22.5t10 24.5t4.5 18q0 7 -5 11.5t-11 7t-12 3.5t-9 1q-24 0 -27 -10l-23 -49q-13 -28 -18.5 -37.5t-8 -13.5t-5 -7.5t-9.5 -19.5q-10 -22 -14.5 -31l-8.5 -16.5l-10.5 -20t-20.5 -42.5q-7 -14 -9.5 -25.5t-2.5 -19.5q1 -3 12 -12.5t23 -9.5q16 0 21 12t19 37
v2q0 5 4 14.5t9 19t10 17t7 9.5q1 3 4.5 9.5l7.5 13.5t7.5 14l5.5 11q15 -12 16.5 -15t8.5 -5q17 -10 26.5 -23t19.5 -19q5 -3 10 -9.5l10 -13t11 -11.5t12 -6l24 13q13 7 13 19q0 4 -2 12zM356 11q0 37 -6 79l-8 58q-17 15 -29 15q-10 0 -18.5 -7.5t-11.5 -13.5
q0 -7 1 -20.5l2 -27.5l2 -27t1 -18q-6 0 -15 -0.5t-18 -0.5t-16.5 -1t-11.5 -3q-2 0 -4 0.5t-4 0.5q-11 0 -22.5 -3.5t-25.5 -5.5q-3 9 -3 23q0 13 2 31t2 28q0 32 -22 32q-16 0 -25 -7t-13.5 -18.5t-5.5 -26.5t-1 -31q0 -26 4 -38q-1 -5 -1 -10.5v-11.5q0 -9 0.5 -20.5
t0.5 -20.5v-14t-1 -11q0 -10 3 -46l4 -53l14 -3.5t23 -4.5t27.5 -4t27.5 -2q14 0 29 0.5t29 0.5q10 -3 22 -3q27 0 44.5 12.5t17.5 35.5q0 3 -2 7q2 12 4.5 20t2.5 16q0 6 -3 15q2 9 2.5 17.5t0.5 16.5v28v8.5t1 8.5zM291 -16q0 -21 -1 -34.5t-2.5 -23.5t-3.5 -18t-3 -16
q-10 -2 -17 -2q-17 0 -40 5q-5 -1 -13 -1q-9 0 -16 1.5t-18 2.5q0 6 -1 15t-1 17v4q-1 9 -1.5 20.5t-0.5 20.5q14 2 23.5 2.5t31.5 2.5q7 4 26 4h28h9z" />
    <glyph glyph-name="uniAC13" unicode="&#xac13;" 
d="M802 388q14 9 14 21q0 13 -4 20t-10.5 11t-13.5 5t-13 1q-14 0 -27.5 -1.5t-21.5 -3.5q-6 2 -11 2q-16 0 -29 -2t-25.5 -4.5t-26 -4.5t-30.5 -2h-12v26q0 18 -2 28q1 3 1 13q0 11 -1 29t-3.5 38t-6.5 39.5t-10 33.5q-12 13 -32 13q-38 0 -38 -25q0 -5 0.5 -7t1.5 -5.5
t3 -11.5t5 -24q5 -26 9 -35q-2 -10 -2 -17q0 -14 3.5 -31t3.5 -22q0 -12 -1 -30.5t-1 -33.5v-3q0 -2 -0.5 -9t-1.5 -16t-1.5 -18.5t-0.5 -16.5q0 -14 3 -21q-1 -5 -3 -14t-3.5 -19.5l-3 -21t-1.5 -17.5q0 -14 8 -19.5t22 -5.5q27 0 35 20q1 9 3.5 22t5 29t4.5 32t2 31
q5 2 18.5 3.5t33.5 3.5l52 5h9q8 0 18 1t24 3zM344 534q-11 9 -27 15.5t-33 6.5h-8q-18 3 -32.5 6.5t-31 6t-39 4.5t-56.5 2q-7 -2 -16 -12t-9 -25q0 -11 6 -21q35 -7 59.5 -7t46.5 -8h6q33 0 46.5 -7.5t13.5 -8.5q0 -8 -6 -22.5t-15 -29.5t-18.5 -28.5t-15.5 -19.5
q-10 -20 -21.5 -35.5t-28.5 -40.5q4 -12 9 -23.5t22 -11.5q9 0 21 3q7 10 22.5 26.5t19.5 29.5l13 20l16 24t9.5 16l6.5 13.5t6 15.5q7 9 13.5 21.5t12 25.5t8.5 24t3 19q0 10 -3 21zM543 -21q-9 19 -18.5 28t-19 15.5l-20.5 13.5t-24 24q-14 10 -27 17.5t-22 17.5
q5 6 15.5 17t11.5 24q-10 31 -43 31q-9 0 -13 -4l-28 -32q-15 -18 -21.5 -24.5l-9.5 -9.5t-6.5 -6t-12.5 -15l-19 -25q-7 -9 -17.5 -20l-21.5 -23.5t-19.5 -26t-11.5 -27.5q0 -2 3.5 -7t9 -10t12.5 -9t14 -4q9 0 17.5 9.5t17.5 22.5t19 26t23 20q1 2 6 9t11 14.5t12 14
t9 8.5l19 -18q13 -12 21 -15q19 -15 33.5 -29l26.5 -25.5t22 -19t21 -9.5q1 0 6 4t11 10t10.5 12.5t4.5 12.5q0 2 -2 8z" />
    <glyph glyph-name="uniAC14" unicode="&#xac14;" 
d="M373 10q-1 3 -3.5 4t-7 3.5t-10.5 8t-14 16.5q-15 10 -26.5 22.5t-19.5 15.5q1 2 6.5 7t11.5 12t11 14t5 13q0 11 -7.5 24.5t-24.5 13.5q-14 0 -28 -11.5t-27.5 -26.5l-26.5 -30t-23 -21l-43 -49q-10 -13 -26 -30t-21 -34q0 -6 11 -19t26 -13q5 0 17.5 10.5t28 26
l33 33.5l33.5 34q15 -10 31 -24t29 -27l21 -21.5t8 -7.5q-6 -9 -12 -20.5l-12 -23t-10 -22t-5 -17.5q1 -4 12.5 -14.5t24.5 -10.5q14 0 28 22.5t38 68.5q8 13 14.5 22l12 16.5l11 15.5l13.5 20q3 -2 6.5 -7t8 -10.5t9 -10t7.5 -5.5q16 -10 24.5 -21.5t17.5 -18.5
q4 -3 10 -10.5l12.5 -15t14 -14t13.5 -7.5l25 11q15 6 15 19q0 10 -6.5 20.5t-14.5 19.5t-17 16l-13 10q-4 6 -14 16l-22 21l-23 21.5l-18 17.5l21 36q17 28 17 40q-6 14 -16 19t-25 5h-14.5t-8 -8l-15 -28t-34.5 -60q-3 -2 -8.5 -9.5t-11 -16.5l-11 -18t-8.5 -13zM344 534
q-11 9 -27 15.5t-33 6.5h-8q-18 3 -32.5 6.5t-31 6t-39 4.5t-56.5 2q-7 -2 -16 -12t-9 -25q0 -11 6 -21q35 -7 59.5 -7t46.5 -8h6q33 0 46.5 -7.5t13.5 -8.5q0 -8 -6 -22.5t-15 -29.5t-18.5 -28.5t-15.5 -19.5q-10 -20 -21.5 -35.5t-28.5 -40.5q4 -12 9 -23.5t22 -11.5
q9 0 21 3q7 10 22.5 26.5t19.5 29.5l13 20l16 24t9.5 16l6.5 13.5t6 15.5q7 9 13.5 21.5t12 25.5t8.5 24t3 19q0 10 -3 21zM802 388q14 9 14 21q0 13 -4 20t-10.5 11t-13.5 5t-13 1q-14 0 -27.5 -1.5t-21.5 -3.5q-6 2 -11 2q-16 0 -29 -2t-25.5 -4.5t-26 -4.5t-30.5 -2h-12
v26q0 18 -2 28q1 3 1 13q0 11 -1 29t-3.5 38t-6.5 39.5t-10 33.5q-12 13 -32 13q-38 0 -38 -25q0 -5 0.5 -7t1.5 -5.5t3 -11.5t5 -24q5 -26 9 -35q-2 -10 -2 -17q0 -14 3.5 -31t3.5 -22q0 -12 -1 -30.5t-1 -33.5v-3q0 -2 -0.5 -9t-1.5 -16t-1.5 -18.5t-0.5 -16.5
q0 -14 3 -21q-1 -5 -3 -14t-3.5 -19.5l-3 -21t-1.5 -17.5q0 -14 8 -19.5t22 -5.5q27 0 35 20q1 9 3.5 22t5 29t4.5 32t2 31q5 2 18.5 3.5t33.5 3.5l52 5h9q8 0 18 1t24 3z" />
    <glyph glyph-name="uniAC15" unicode="&#xac15;" 
d="M802 388q14 9 14 21q0 13 -4 20t-10.5 11t-13.5 5t-13 1q-14 0 -27.5 -1.5t-21.5 -3.5q-6 2 -11 2q-16 0 -29 -2t-25.5 -4.5t-26 -4.5t-30.5 -2h-12v26q0 18 -2 28q1 3 1 13q0 11 -1 29t-3.5 38t-6.5 39.5t-10 33.5q-12 13 -32 13q-38 0 -38 -25q0 -5 0.5 -7t1.5 -5.5
t3 -11.5t5 -24q5 -26 9 -35q-2 -10 -2 -17q0 -14 3.5 -31t3.5 -22q0 -12 -1 -30.5t-1 -33.5v-3q0 -2 -0.5 -9t-1.5 -16t-1.5 -18.5t-0.5 -16.5q0 -14 3 -21q-1 -5 -3 -14t-3.5 -19.5l-3 -21t-1.5 -17.5q0 -14 8 -19.5t22 -5.5q27 0 35 20q1 9 3.5 22t5 29t4.5 32t2 31
q5 2 18.5 3.5t33.5 3.5l52 5h9q8 0 18 1t24 3zM344 534q-11 9 -27 15.5t-33 6.5h-8q-18 3 -32.5 6.5t-31 6t-39 4.5t-56.5 2q-7 -2 -16 -12t-9 -25q0 -11 6 -21q35 -7 59.5 -7t46.5 -8h6q33 0 46.5 -7.5t13.5 -8.5q0 -8 -6 -22.5t-15 -29.5t-18.5 -28.5t-15.5 -19.5
q-10 -20 -21.5 -35.5t-28.5 -40.5q4 -12 9 -23.5t22 -11.5q9 0 21 3q7 10 22.5 26.5t19.5 29.5l13 20l16 24t9.5 16l6.5 13.5t6 15.5q7 9 13.5 21.5t12 25.5t8.5 24t3 19q0 10 -3 21zM490 21q0 2 0.5 5t0.5 7q0 11 -2.5 29t-2.5 25q0 2 0.5 3t0.5 2q-10 14 -15 23.5
t-11.5 16.5t-17.5 12.5t-33 11.5l-19.5 5.5t-13.5 1.5h-2.5t-3.5 -0.5t-10 -1l-20 -1.5q-14 -1 -20 -1.5t-9 -3t-7 -8t-15 -16.5q-13 -13 -20 -22.5t-10 -17.5t-3.5 -16t-0.5 -18q0 -13 0.5 -24.5t4 -23.5t11.5 -25t24 -29q20 -20 32 -25.5t28 -5.5q20 0 43 6t47 14
q6 7 13.5 18.5l14.5 23t11.5 21t4.5 14.5zM422 67v-8q0 -24 -3 -37.5t-10 -20.5t-19 -8.5t-29 -2.5q-20 7 -28.5 25.5t-9.5 38.5q1 15 8 24.5t15.5 14t16.5 6t11 1.5q10 0 19 -5t15 -11t10 -11t4 -6z" />
    <glyph glyph-name="uniAC16" unicode="&#xac16;" 
d="M802 388q14 9 14 21q0 13 -4 20t-10.5 11t-13.5 5t-13 1q-14 0 -27.5 -1.5t-21.5 -3.5q-6 2 -11 2q-16 0 -29 -2t-25.5 -4.5t-26 -4.5t-30.5 -2h-12v26q0 18 -2 28q1 3 1 13q0 11 -1 29t-3.5 38t-6.5 39.5t-10 33.5q-12 13 -32 13q-38 0 -38 -25q0 -5 0.5 -7t1.5 -5.5
t3 -11.5t5 -24q5 -26 9 -35q-2 -10 -2 -17q0 -14 3.5 -31t3.5 -22q0 -12 -1 -30.5t-1 -33.5v-3q0 -2 -0.5 -9t-1.5 -16t-1.5 -18.5t-0.5 -16.5q0 -14 3 -21q-1 -5 -3 -14t-3.5 -19.5l-3 -21t-1.5 -17.5q0 -14 8 -19.5t22 -5.5q27 0 35 20q1 9 3.5 22t5 29t4.5 32t2 31
q5 2 18.5 3.5t33.5 3.5l52 5h9q8 0 18 1t24 3zM344 534q-11 9 -27 15.5t-33 6.5h-8q-18 3 -32.5 6.5t-31 6t-39 4.5t-56.5 2q-7 -2 -16 -12t-9 -25q0 -11 6 -21q35 -7 59.5 -7t46.5 -8h6q33 0 46.5 -7.5t13.5 -8.5q0 -8 -6 -22.5t-15 -29.5t-18.5 -28.5t-15.5 -19.5
q-10 -20 -21.5 -35.5t-28.5 -40.5q4 -12 9 -23.5t22 -11.5q9 0 21 3q7 10 22.5 26.5t19.5 29.5l13 20l16 24t9.5 16l6.5 13.5t6 15.5q7 9 13.5 21.5t12 25.5t8.5 24t3 19q0 10 -3 21zM541 -125q-8 17 -15 24t-14 12.5t-15 12.5t-18 24q-14 10 -28.5 22.5t-23.5 22.5
q7 9 15.5 23.5t16 29.5t12.5 28.5t5 19.5q0 23 -20 33.5t-43 10.5h-8q-18 3 -32.5 6.5t-31 6t-39 4.5t-56.5 2q-7 -2 -16 -12t-9 -25q0 -11 6 -21q35 -7 59.5 -7t46.5 -8h6q7 0 17 -2t19 -4t14.5 -3.5t4.5 -1.5q-3 -4 -13 -19l-21 -32t-21 -31t-13 -17l-28 -45
q-38 -60 -61.5 -90t-24.5 -49q1 -4 13.5 -15.5t26.5 -11.5q4 0 7.5 0.5t7 3.5t8.5 9.5l14 17.5l28 36q1 5 6 14.5t12 19l13.5 18t9.5 10.5q0 2 4.5 9l9.5 15t10.5 15t7.5 10q24 -27 36 -32q9 -7 20 -24t21 -23l23.5 -21t24.5 -12l4.5 4t10 9.5t9.5 12t4 12.5q0 2 -2 8z" />
    <glyph glyph-name="uniAC17" unicode="&#xac17;" 
d="M802 388q14 9 14 21q0 13 -4 20t-10.5 11t-13.5 5t-13 1q-14 0 -27.5 -1.5t-21.5 -3.5q-6 2 -11 2q-16 0 -29 -2t-25.5 -4.5t-26 -4.5t-30.5 -2h-12v26q0 18 -2 28q1 3 1 13q0 11 -1 29t-3.5 38t-6.5 39.5t-10 33.5q-12 13 -32 13q-38 0 -38 -25q0 -5 0.5 -7t1.5 -5.5
t3 -11.5t5 -24q5 -26 9 -35q-2 -10 -2 -17q0 -14 3.5 -31t3.5 -22q0 -12 -1 -30.5t-1 -33.5v-3q0 -2 -0.5 -9t-1.5 -16t-1.5 -18.5t-0.5 -16.5q0 -14 3 -21q-1 -5 -3 -14t-3.5 -19.5l-3 -21t-1.5 -17.5q0 -14 8 -19.5t22 -5.5q27 0 35 20q1 9 3.5 22t5 29t4.5 32t2 31
q5 2 18.5 3.5t33.5 3.5l52 5h9q8 0 18 1t24 3zM344 534q-11 9 -27 15.5t-33 6.5h-8q-18 3 -32.5 6.5t-31 6t-39 4.5t-56.5 2q-7 -2 -16 -12t-9 -25q0 -11 6 -21q35 -7 59.5 -7t46.5 -8h6q33 0 46.5 -7.5t13.5 -8.5q0 -8 -6 -22.5t-15 -29.5t-18.5 -28.5t-15.5 -19.5
q-10 -20 -21.5 -35.5t-28.5 -40.5q4 -12 9 -23.5t22 -11.5q9 0 21 3q7 10 22.5 26.5t19.5 29.5l13 20l16 24t9.5 16l6.5 13.5t6 15.5q7 9 13.5 21.5t12 25.5t8.5 24t3 19q0 10 -3 21zM446 130q-4 10 -15.5 26t-27.5 31t-33 25.5t-32 10.5q-14 0 -21.5 -13t-7.5 -27
q0 -12 6 -18.5t14.5 -11l17.5 -9.5t14 -14q2 -2 10 -8.5l17 -14t16.5 -14.5t9.5 -10q13 7 23 18t10 22q0 5 -1 7zM531 -138l-13 27.5t-13 15.5q-7 8 -23 24.5t-36 29.5q9 10 17 25t8 36q0 23 -20 33.5t-43 10.5h-8q-18 3 -32.5 6.5t-31 6t-39 4.5t-56.5 2q-7 -2 -16 -12
t-9 -25q0 -11 6 -21q35 -7 59.5 -7t46.5 -8h6q7 0 17 -2t19 -4t14.5 -3.5t4.5 -1.5q-10 -12 -24 -31.5t-24 -27.5l-54 -83l-23 -34t-15 -36q0 -2 3.5 -6.5t9 -9t11.5 -8t12 -3.5q12 0 22 12.5t24 33.5q1 5 7 14.5t13.5 19l14.5 18t10 10.5q1 3 5 8.5l8.5 11.5l9 12t7.5 9
q18 -15 30.5 -29.5l23.5 -27t21.5 -21.5t24.5 -11q1 0 5 3.5t9 8.5t9 10.5t4 10.5q0 3 -2 9z" />
    <glyph glyph-name="uniAC19" unicode="&#xac19;" 
d="M318 15q1 23 3.5 44.5t4.5 30.5q47 7 84 10.5l77 7.5q12 6 12 28q0 38 -23 39l-42 -5q-9 -1 -16 -1.5t-13 -0.5q-11 0 -19 2q-6 -2 -8.5 -3.5t-6.5 -2.5t-11.5 -1.5t-23.5 -0.5q-13 -6 -33 -7.5t-34 -9.5q0 -1 -2.5 -11t-5.5 -24t-5.5 -30t-2.5 -29q0 -20 3 -31.5
t3 -28.5q0 -44 -3.5 -89t-3.5 -76q0 -23 14 -38t35 -15q4 0 6 1q13 -1 24.5 -3.5t22.5 -2.5q4 0 7 0.5t7 1.5q35 -7 61 -7q28 0 51 8t44 10q15 16 15 29q0 10 -8 18.5t-13 11.5q-12 0 -27 -3t-23 -4q-4 1 -8 1h-9q-11 0 -23.5 -1t-25.5 -1q-23 0 -43 3.5t-34 3.5h-7
q-2 8 -2 47q0 20 0.5 36t1.5 29q10 0 20 0.5t18 0.5q7 0 12 -0.5t10 -1.5q7 2 20 3.5t27.5 3t29 3.5t24.5 5q2 5 6.5 15t4.5 21q0 15 -13 18t-34 3t-37.5 -2t-26.5 -4q-13 -1 -28.5 -1h-32.5zM344 534q-11 9 -27 15.5t-33 6.5h-8q-18 3 -32.5 6.5t-31 6t-39 4.5t-56.5 2
q-7 -2 -16 -12t-9 -25q0 -11 6 -21q35 -7 59.5 -7t46.5 -8h6q33 0 46.5 -7.5t13.5 -8.5q0 -8 -6 -22.5t-15 -29.5t-18.5 -28.5t-15.5 -19.5q-10 -20 -21.5 -35.5t-28.5 -40.5q4 -12 9 -23.5t22 -11.5q9 0 21 3q7 10 22.5 26.5t19.5 29.5l13 20l16 24t9.5 16l6.5 13.5t6 15.5
q7 9 13.5 21.5t12 25.5t8.5 24t3 19q0 10 -3 21zM802 388q14 9 14 21q0 13 -4 20t-10.5 11t-13.5 5t-13 1q-14 0 -27.5 -1.5t-21.5 -3.5q-6 2 -11 2q-16 0 -29 -2t-25.5 -4.5t-26 -4.5t-30.5 -2h-12v26q0 18 -2 28q1 3 1 13q0 11 -1 29t-3.5 38t-6.5 39.5t-10 33.5
q-12 13 -32 13q-38 0 -38 -25q0 -5 0.5 -7t1.5 -5.5t3 -11.5t5 -24q5 -26 9 -35q-2 -10 -2 -17q0 -14 3.5 -31t3.5 -22q0 -12 -1 -30.5t-1 -33.5v-3q0 -2 -0.5 -9t-1.5 -16t-1.5 -18.5t-0.5 -16.5q0 -14 3 -21q-1 -5 -3 -14t-3.5 -19.5l-3 -21t-1.5 -17.5q0 -14 8 -19.5
t22 -5.5q27 0 35 20q1 9 3.5 22t5 29t4.5 32t2 31q5 2 18.5 3.5t33.5 3.5l52 5h9q8 0 18 1t24 3z" />
    <glyph glyph-name="uniAC1A" unicode="&#xac1a;" 
d="M802 388q14 9 14 21q0 13 -4 20t-10.5 11t-13.5 5t-13 1q-14 0 -27.5 -1.5t-21.5 -3.5q-6 2 -11 2q-16 0 -29 -2t-25.5 -4.5t-26 -4.5t-30.5 -2h-12v26q0 18 -2 28q1 3 1 13q0 11 -1 29t-3.5 38t-6.5 39.5t-10 33.5q-12 13 -32 13q-38 0 -38 -25q0 -5 0.5 -7t1.5 -5.5
t3 -11.5t5 -24q5 -26 9 -35q-2 -10 -2 -17q0 -14 3.5 -31t3.5 -22q0 -12 -1 -30.5t-1 -33.5v-3q0 -2 -0.5 -9t-1.5 -16t-1.5 -18.5t-0.5 -16.5q0 -14 3 -21q-1 -5 -3 -14t-3.5 -19.5l-3 -21t-1.5 -17.5q0 -14 8 -19.5t22 -5.5q27 0 35 20q1 9 3.5 22t5 29t4.5 32t2 31
q5 2 18.5 3.5t33.5 3.5l52 5h9q8 0 18 1t24 3zM344 534q-11 9 -27 15.5t-33 6.5h-8q-18 3 -32.5 6.5t-31 6t-39 4.5t-56.5 2q-7 -2 -16 -12t-9 -25q0 -11 6 -21q35 -7 59.5 -7t46.5 -8h6q33 0 46.5 -7.5t13.5 -8.5q0 -8 -6 -22.5t-15 -29.5t-18.5 -28.5t-15.5 -19.5
q-10 -20 -21.5 -35.5t-28.5 -40.5q4 -12 9 -23.5t22 -11.5q9 0 21 3q7 10 22.5 26.5t19.5 29.5l13 20l16 24t9.5 16l6.5 13.5t6 15.5q7 9 13.5 21.5t12 25.5t8.5 24t3 19q0 10 -3 21zM550 -74q-22 5 -40.5 8t-35.5 5q1 5 3.5 22t5 39t4 44t1.5 37q0 14 -2 20q9 1 20 3
t21 5.5t16.5 9.5t6.5 14q0 26 -14 31t-30 5q-30 1 -53 -2t-42 -7t-36 -7t-35 -3h-38q-26 0 -35 -4q-3 1 -6 1.5t-8 0.5q-12 0 -25 -1t-24.5 -5.5t-19 -13.5t-7.5 -25q0 -10 5.5 -15.5t13.5 -8t16 -3t14 -0.5q10 0 18 0.5t17 1.5q0 -6 1.5 -24.5l3.5 -41.5t5.5 -46.5
t6.5 -38.5l-39 -7q-19 -5 -30.5 -7.5t-17.5 -5.5t-8 -7t-2 -11q0 -20 11.5 -27.5t15.5 -7.5q9 0 24.5 1.5t31.5 3.5t28.5 4t14.5 3q3 -1 10 -1q12 0 27.5 3.5t24.5 3.5q17 0 33.5 1.5t39.5 1.5q16 0 34 -3t49 -3q14 0 26.5 5t12.5 31q0 12 -14 21zM421 94q1 -5 1 -9v-9
q0 -38 -3 -67.5t-8 -69.5q-19 -4 -37.5 -3.5t-29.5 -1.5q-5 8 -7 24.5t-3.5 37.5t-2.5 43.5t-4 42.5q16 3 32 5l29 3.5l22 2.5t11 1z" />
    <glyph glyph-name="uniAC1B" unicode="&#xac1b;" 
d="M802 388q14 9 14 21q0 13 -4 20t-10.5 11t-13.5 5t-13 1q-14 0 -27.5 -1.5t-21.5 -3.5q-6 2 -11 2q-16 0 -29 -2t-25.5 -4.5t-26 -4.5t-30.5 -2h-12v26q0 18 -2 28q1 3 1 13q0 11 -1 29t-3.5 38t-6.5 39.5t-10 33.5q-12 13 -32 13q-38 0 -38 -25q0 -5 0.5 -7t1.5 -5.5
t3 -11.5t5 -24q5 -26 9 -35q-2 -10 -2 -17q0 -14 3.5 -31t3.5 -22q0 -12 -1 -30.5t-1 -33.5v-3q0 -2 -0.5 -9t-1.5 -16t-1.5 -18.5t-0.5 -16.5q0 -14 3 -21q-1 -5 -3 -14t-3.5 -19.5l-3 -21t-1.5 -17.5q0 -14 8 -19.5t22 -5.5q27 0 35 20q1 9 3.5 22t5 29t4.5 32t2 31
q5 2 18.5 3.5t33.5 3.5l52 5h9q8 0 18 1t24 3zM344 534q-11 9 -27 15.5t-33 6.5h-8q-18 3 -32.5 6.5t-31 6t-39 4.5t-56.5 2q-7 -2 -16 -12t-9 -25q0 -11 6 -21q35 -7 59.5 -7t46.5 -8h6q33 0 46.5 -7.5t13.5 -8.5q0 -8 -6 -22.5t-15 -29.5t-18.5 -28.5t-15.5 -19.5
q-10 -20 -21.5 -35.5t-28.5 -40.5q4 -12 9 -23.5t22 -11.5q9 0 21 3q7 10 22.5 26.5t19.5 29.5l13 20l16 24t9.5 16l6.5 13.5t6 15.5q7 9 13.5 21.5t12 25.5t8.5 24t3 19q0 10 -3 21zM466 106q-2 7 -12.5 18t-24 22t-26.5 20.5t-20 13.5q-15 9 -22.5 13t-11 5.5t-5.5 1
t-6 -0.5q-14 0 -21.5 -13t-7.5 -27q0 -11 6 -17t15 -11l18.5 -10t16.5 -15l36 -23q14 -9 22.5 -14t10.5 -10q13 7 23 18t10 22q0 5 -1 7zM520 18q-5 4 -16.5 8t-25 7t-27 5t-22.5 2h-9l-38 7.5t-37 5.5q-5 1 -16 2.5t-25 3t-28 2.5t-23 1q-37 0 -52 -6.5t-15 -33.5
q0 -11 6 -21l44 -7q27 -3 43.5 -3h28t20.5 -0.5t20 -4.5h4q6 0 19.5 -2.5l31 -5.5t36.5 -5.5t34 -2.5q22 0 35 7.5t13 33.5q0 2 -0.5 3.5t-0.5 3.5zM466 -140q-4 6 -6.5 21.5t-7.5 24.5q0 4 -6.5 10t-15 12.5t-18.5 13l-18 11.5q-23 -1 -42.5 -2t-35 -8.5t-28.5 -24.5
t-22 -50q3 -18 4.5 -32.5t8.5 -26.5t21.5 -23t42.5 -22q1 -3 8 -3q4 0 11 1.5t14.5 4t13 4l5.5 1.5h1q4 1 11.5 5.5t15.5 10.5t15.5 12.5t11.5 11.5q9 11 9.5 20t6.5 28zM398 -138q0 -2 -2 -8t-6 -12t-11 -11t-17 -5q-11 0 -20.5 6.5t-9.5 21.5q0 4 2 14.5t10 18.5
q11 3 18 4.5t13 1.5q3 0 7 -4t7.5 -9.5t6 -10.5t2.5 -7z" />
    <glyph glyph-name="uniAC1C" unicode="&#xac1c;" 
d="M730 292q0 11 1 22t1 22t-1 21.5t-4 22.5q2 5 2 10.5v11.5q0 9 -0.5 24.5t-4 30.5t-11 25.5t-20.5 10.5q-18 0 -28.5 -6.5t-10.5 -21.5q0 -10 1.5 -20t2.5 -21q5 -10 4 -22.5t5 -24.5q-2 -5 -3 -15t-4 -10q-29 0 -51.5 -6t-48.5 -6h-11v26q0 18 -2 28v7q0 13 -3 29.5
t-3 24.5l-6 26.5t-7.5 24t-13 17.5t-21.5 7q-33 0 -33 -24q0 -5 0.5 -6.5t1.5 -5.5l3 -12t5 -25q5 -26 9 -35q-2 -10 -2 -17q0 -14 3.5 -31t3.5 -22q0 -12 -1 -30.5t-1 -33.5v-4q0 -3 -0.5 -11.5t-1.5 -20t-1.5 -23.5t-0.5 -21q0 -17 3 -24q-1 -4 -2.5 -15l-3.5 -25
t-3.5 -28t-1.5 -23q0 -26 28 -26q26 0 34 20l6 40q3 18 3.5 35.5l1 34.5t1.5 35.5t3 38.5q5 1 17 3t29 4l46 5q2 0 3.5 -0.5t3.5 -0.5q5 0 9.5 1t9.5 3q0 -4 -0.5 -18t-0.5 -29.5t-0.5 -27.5l-0.5 -12v-8q0 -14 -4 -35.5t-4 -36.5q0 -14 8.5 -24.5t25.5 -10.5t24 16t9 45
l9 98q1 8 1 14v12v12.5t-2 10.5zM314 414q-11 9 -27 15.5t-33 6.5h-8q-18 3 -32.5 6.5t-31 6t-39 4.5t-56.5 2q-7 -2 -16 -12t-9 -25q0 -11 6 -21q35 -7 59.5 -7t46.5 -8h6q33 0 46.5 -7.5t13.5 -8.5q0 -8 -6 -22.5t-15 -29.5t-18.5 -28.5t-15.5 -19.5q-10 -20 -21.5 -35.5
t-28.5 -40.5q4 -12 9 -23.5t22 -11.5q9 0 21 3q7 10 22.5 26.5t19.5 29.5l13 20l16 24t9.5 16l6.5 13.5t6 15.5q7 9 13.5 21.5t12 25.5t8.5 24t3 19q0 10 -3 21z" />
    <glyph glyph-name="uniAC1D" unicode="&#xac1d;" 
d="M730 412q0 11 1 22t1 22t-1 21.5t-4 22.5q2 5 2 10.5v11.5q0 9 -0.5 24.5t-4 30.5t-11 25.5t-20.5 10.5q-18 0 -28.5 -6.5t-10.5 -21.5q0 -10 1.5 -20t2.5 -21q5 -10 4 -22.5t5 -24.5q-2 -5 -3 -15t-4 -10q-29 0 -51.5 -6t-48.5 -6h-11v26q0 18 -2 28v7q0 13 -3 29.5
t-3 24.5l-6 26.5t-7.5 24t-13 17.5t-21.5 7q-33 0 -33 -24q0 -5 0.5 -6.5t1.5 -5.5l3 -12t5 -25q5 -26 9 -35q-2 -10 -2 -17q0 -14 3.5 -31t3.5 -22q0 -12 -1 -30.5t-1 -33.5v-3q0 -2 -0.5 -9t-1.5 -16t-1.5 -18.5t-0.5 -16.5q0 -14 3 -21q-1 -5 -3 -14t-3.5 -19.5l-3 -21
t-1.5 -17.5q0 -14 8 -19.5t20 -5.5q16 0 24.5 9t13 28.5t6.5 50.5l5 76q5 1 17 3t29 4l46 5q2 0 3.5 -0.5t3.5 -0.5q5 0 9.5 1t9.5 3q0 -5 -0.5 -15.5t-0.5 -22t-0.5 -20.5l-0.5 -9q0 -18 -4 -34.5t-4 -29.5q0 -11 8.5 -21t25.5 -10q12 0 19 9t11 22.5t5.5 29t1.5 27.5v8
q2 8 4 23t2 29q0 5 -0.5 10t-1.5 10zM314 534q-11 9 -27 15.5t-33 6.5h-8q-18 3 -32.5 6.5t-31 6t-39 4.5t-56.5 2q-7 -2 -16 -12t-9 -25q0 -11 6 -21q35 -7 59.5 -7t46.5 -8h6q33 0 46.5 -7.5t13.5 -8.5q0 -8 -6 -22.5t-15 -29.5t-18.5 -28.5t-15.5 -19.5
q-10 -20 -21.5 -35.5t-28.5 -40.5q4 -12 9 -23.5t22 -11.5q9 0 21 3q7 10 22.5 26.5t19.5 29.5l13 20l16 24t9.5 16l6.5 13.5t6 15.5q7 9 13.5 21.5t12 25.5t8.5 24t3 19q0 10 -3 21zM504 91q4 13 4 25q0 21 -16 33.5t-39 12.5q-4 0 -8 -2l-24 4.5t-25 2.5q-9 0 -18 -3
q-6 2 -12 2h-11q-13 0 -23.5 -1.5t-21.5 -1.5q-7 0 -11 1q-42 -5 -57 -15t-15 -26q0 -10 8 -18.5t13 -11.5q9 0 19.5 2.5t25.5 2.5q3 0 6.5 -0.5t7.5 -0.5q7 2 21 3t24 1h8q3 0 6.5 0.5t7.5 0.5q9 0 19.5 -1t19.5 -2.5t15.5 -3.5t6.5 -5v-13t-2 -19l-5 -44v-8
q0 -20 -8.5 -44.5t-8.5 -50.5q17 -13 34 -13q11 0 17 2.5t9.5 8.5t6 16t7.5 25q6 17 9.5 31t6 28.5t3.5 30t1 34.5q0 5 -0.5 9t-0.5 8z" />
    <glyph glyph-name="uniAC20" unicode="&#xac20;" 
d="M730 412q0 11 1 22t1 22t-1 21.5t-4 22.5q2 5 2 10.5v11.5q0 9 -0.5 24.5t-4 30.5t-11 25.5t-20.5 10.5q-18 0 -28.5 -6.5t-10.5 -21.5q0 -10 1.5 -20t2.5 -21q5 -10 4 -22.5t5 -24.5q-2 -5 -3 -15t-4 -10q-29 0 -51.5 -6t-48.5 -6h-11v26q0 18 -2 28v7q0 13 -3 29.5
t-3 24.5l-6 26.5t-7.5 24t-13 17.5t-21.5 7q-33 0 -33 -24q0 -5 0.5 -6.5t1.5 -5.5l3 -12t5 -25q5 -26 9 -35q-2 -10 -2 -17q0 -14 3.5 -31t3.5 -22q0 -12 -1 -30.5t-1 -33.5v-3q0 -2 -0.5 -9t-1.5 -16t-1.5 -18.5t-0.5 -16.5q0 -14 3 -21q-1 -5 -3 -14t-3.5 -19.5l-3 -21
t-1.5 -17.5q0 -14 8 -19.5t20 -5.5q16 0 24.5 9t13 28.5t6.5 50.5l5 76q5 1 17 3t29 4l46 5q2 0 3.5 -0.5t3.5 -0.5q5 0 9.5 1t9.5 3q0 -5 -0.5 -15.5t-0.5 -22t-0.5 -20.5l-0.5 -9q0 -18 -4 -34.5t-4 -29.5q0 -11 8.5 -21t25.5 -10q12 0 19 9t11 22.5t5.5 29t1.5 27.5v8
q2 8 4 23t2 29q0 5 -0.5 10t-1.5 10zM314 534q-11 9 -27 15.5t-33 6.5h-8q-18 3 -32.5 6.5t-31 6t-39 4.5t-56.5 2q-7 -2 -16 -12t-9 -25q0 -11 6 -21q35 -7 59.5 -7t46.5 -8h6q33 0 46.5 -7.5t13.5 -8.5q0 -8 -6 -22.5t-15 -29.5t-18.5 -28.5t-15.5 -19.5
q-10 -20 -21.5 -35.5t-28.5 -40.5q4 -12 9 -23.5t22 -11.5q9 0 21 3q7 10 22.5 26.5t19.5 29.5l13 20l16 24t9.5 16l6.5 13.5t6 15.5q7 9 13.5 21.5t12 25.5t8.5 24t3 19q0 10 -3 21zM504 -42q15 16 15 29q0 10 -8 18.5t-13 11.5q-36 -4 -57 -7t-45 -3q-10 0 -23 0.5
t-25.5 0.5t-23 0.5t-16.5 0.5q-7 21 -6.5 39t-1.5 49v18q0 11 -1 24t-3 23q-11 6 -19 9.5t-16 3.5q-6 0 -11.5 -2t-10 -9t-7 -20.5t-2.5 -36.5q0 -31 2.5 -51.5t6.5 -46.5q-1 -5 -1 -15q0 -29 15 -48q8 -3 19.5 -4.5t20.5 -1.5q11 0 14 2q11 -1 25 -2t28 -1q30 0 51 1.5
t37.5 3.5t29 5.5t26.5 8.5z" />
    <glyph glyph-name="uniAC24" unicode="&#xac24;" 
d="M730 412q0 11 1 22t1 22t-1 21.5t-4 22.5q2 5 2 10.5v11.5q0 9 -0.5 24.5t-4 30.5t-11 25.5t-20.5 10.5q-18 0 -28.5 -6.5t-10.5 -21.5q0 -10 1.5 -20t2.5 -21q5 -10 4 -22.5t5 -24.5q-2 -5 -3 -15t-4 -10q-29 0 -51.5 -6t-48.5 -6h-11v26q0 18 -2 28v7q0 13 -3 29.5
t-3 24.5l-6 26.5t-7.5 24t-13 17.5t-21.5 7q-33 0 -33 -24q0 -5 0.5 -6.5t1.5 -5.5l3 -12t5 -25q5 -26 9 -35q-2 -10 -2 -17q0 -14 3.5 -31t3.5 -22q0 -12 -1 -30.5t-1 -33.5v-3q0 -2 -0.5 -9t-1.5 -16t-1.5 -18.5t-0.5 -16.5q0 -14 3 -21q-1 -5 -3 -14t-3.5 -19.5l-3 -21
t-1.5 -17.5q0 -14 8 -19.5t20 -5.5q16 0 24.5 9t13 28.5t6.5 50.5l5 76q5 1 17 3t29 4l46 5q2 0 3.5 -0.5t3.5 -0.5q5 0 9.5 1t9.5 3q0 -5 -0.5 -15.5t-0.5 -22t-0.5 -20.5l-0.5 -9q0 -18 -4 -34.5t-4 -29.5q0 -11 8.5 -21t25.5 -10q12 0 19 9t11 22.5t5.5 29t1.5 27.5v8
q2 8 4 23t2 29q0 5 -0.5 10t-1.5 10zM314 534q-11 9 -27 15.5t-33 6.5h-8q-18 3 -32.5 6.5t-31 6t-39 4.5t-56.5 2q-7 -2 -16 -12t-9 -25q0 -11 6 -21q35 -7 59.5 -7t46.5 -8h6q33 0 46.5 -7.5t13.5 -8.5q0 -8 -6 -22.5t-15 -29.5t-18.5 -28.5t-15.5 -19.5
q-10 -20 -21.5 -35.5t-28.5 -40.5q4 -12 9 -23.5t22 -11.5q9 0 21 3q7 10 22.5 26.5t19.5 29.5l13 20l16 24t9.5 16l6.5 13.5t6 15.5q7 9 13.5 21.5t12 25.5t8.5 24t3 19q0 10 -3 21zM582 -162q-6 3 -20 3q-20 0 -40 -3t-26 -3q-21 -3 -32.5 -4t-21.5 -1q-5 0 -9.5 0.5
t-9.5 0.5q-6 -3 -34 -3q-23 0 -46 0.5t-42 2.5q-22 1 -43 3q-1 3 -1 11q1 14 2 30t3 27l5 37q3 26 11 36q14 3 26.5 5t26 3.5t30.5 2.5t40 1h51q4 1 11.5 3.5t15.5 4.5t15 4t10 3q15 27 21 54t11 55q0 8 -4.5 26t-15.5 28q-21 5 -41.5 11t-28.5 6q-3 -1 -13 -1h-10t-12 1
l-42 4q-10 6 -30.5 6.5t-30.5 3.5q-9 -5 -13 -15t-4 -20q0 -15 12.5 -23t28.5 -11.5t30.5 -4t18.5 -0.5q2 -1 11 -3t25 -4l47 -7q0 -16 -5 -31.5t-11 -26.5q-7 -1 -17 -1h-24h-9q-10 0 -17 -1t-12 -3q-5 1 -16 1q-29 0 -51 -4.5t-50 -4.5h-8q-20 0 -32 -14t-12 -40
q0 -6 3 -9l-9 -73q-5 -45 -7.5 -59t-2.5 -12q0 -11 6 -21.5t14.5 -19t18.5 -13.5t18 -6q30 -2 59 -3.5t53 -2.5t39.5 -1h17.5q24 0 50.5 2.5t50.5 5.5t41.5 5.5t22.5 2.5q6 2 10.5 12t4.5 26q0 13 -8 21z" />
    <glyph glyph-name="uniAC2C" unicode="&#xac2c;" 
d="M730 412q0 11 1 22t1 22t-1 21.5t-4 22.5q2 5 2 10.5v11.5q0 9 -0.5 24.5t-4 30.5t-11 25.5t-20.5 10.5q-18 0 -28.5 -6.5t-10.5 -21.5q0 -10 1.5 -20t2.5 -21q5 -10 4 -22.5t5 -24.5q-2 -5 -3 -15t-4 -10q-29 0 -51.5 -6t-48.5 -6h-11v26q0 18 -2 28v7q0 13 -3 29.5
t-3 24.5l-6 26.5t-7.5 24t-13 17.5t-21.5 7q-33 0 -33 -24q0 -5 0.5 -6.5t1.5 -5.5l3 -12t5 -25q5 -26 9 -35q-2 -10 -2 -17q0 -14 3.5 -31t3.5 -22q0 -12 -1 -30.5t-1 -33.5v-3q0 -2 -0.5 -9t-1.5 -16t-1.5 -18.5t-0.5 -16.5q0 -14 3 -21q-1 -5 -3 -14t-3.5 -19.5l-3 -21
t-1.5 -17.5q0 -14 8 -19.5t20 -5.5q16 0 24.5 9t13 28.5t6.5 50.5l5 76q5 1 17 3t29 4l46 5q2 0 3.5 -0.5t3.5 -0.5q5 0 9.5 1t9.5 3q0 -5 -0.5 -15.5t-0.5 -22t-0.5 -20.5l-0.5 -9q0 -18 -4 -34.5t-4 -29.5q0 -11 8.5 -21t25.5 -10q12 0 19 9t11 22.5t5.5 29t1.5 27.5v8
q2 8 4 23t2 29q0 5 -0.5 10t-1.5 10zM314 534q-11 9 -27 15.5t-33 6.5h-8q-18 3 -32.5 6.5t-31 6t-39 4.5t-56.5 2q-7 -2 -16 -12t-9 -25q0 -11 6 -21q35 -7 59.5 -7t46.5 -8h6q33 0 46.5 -7.5t13.5 -8.5q0 -8 -6 -22.5t-15 -29.5t-18.5 -28.5t-15.5 -19.5
q-10 -20 -21.5 -35.5t-28.5 -40.5q4 -12 9 -23.5t22 -11.5q9 0 21 3q7 10 22.5 26.5t19.5 29.5l13 20l16 24t9.5 16l6.5 13.5t6 15.5q7 9 13.5 21.5t12 25.5t8.5 24t3 19q0 10 -3 21zM504 78v9q0 22 -2.5 36t-5.5 22q-22 8 -45 10t-40 4q-9 3 -19 4t-21 1q-12 0 -22.5 -1
t-17.5 -3q-4 1 -8 1h-8q-26 0 -40.5 -3t-21 -9t-8 -15t-1.5 -21q0 -17 2 -32t5 -30t5 -32.5t2 -40.5q0 -18 7 -35.5t11 -25.5q5 -1 11 -1.5t14 -0.5q3 0 6.5 0.5t7.5 0.5h35q6 0 11.5 -0.5t10.5 -0.5q4 0 13.5 1.5t20.5 3.5t22 3.5t19 1.5h10q13 0 29 4q7 11 9 27.5t2 30.5
v11q2 18 4 40t3 40zM437 88q1 -5 1.5 -8.5t0.5 -7.5q0 -9 -1.5 -18l-3.5 -20v-5q0 -13 -2 -22.5t-3 -20.5q-7 -4 -20 -5.5t-26.5 -2t-24 -0.5h-13.5h-9t-9 -1q-6 12 -8.5 28.5t-3.5 33.5t-2 31.5t-2 22.5q8 1 16 1.5t16 0.5t14.5 -0.5t12.5 -0.5h9q19 0 30 -2t28 -4z" />
    <glyph glyph-name="uniAC2D" unicode="&#xac2d;" 
d="M730 412q0 11 1 22t1 22t-1 21.5t-4 22.5q2 5 2 10.5v11.5q0 9 -0.5 24.5t-4 30.5t-11 25.5t-20.5 10.5q-18 0 -28.5 -6.5t-10.5 -21.5q0 -10 1.5 -20t2.5 -21q5 -10 4 -22.5t5 -24.5q-2 -5 -3 -15t-4 -10q-29 0 -51.5 -6t-48.5 -6h-11v26q0 18 -2 28v7q0 13 -3 29.5
t-3 24.5l-6 26.5t-7.5 24t-13 17.5t-21.5 7q-33 0 -33 -24q0 -5 0.5 -6.5t1.5 -5.5l3 -12t5 -25q5 -26 9 -35q-2 -10 -2 -17q0 -14 3.5 -31t3.5 -22q0 -12 -1 -30.5t-1 -33.5v-3q0 -2 -0.5 -9t-1.5 -16t-1.5 -18.5t-0.5 -16.5q0 -14 3 -21q-1 -5 -3 -14t-3.5 -19.5l-3 -21
t-1.5 -17.5q0 -14 8 -19.5t20 -5.5q16 0 24.5 9t13 28.5t6.5 50.5l5 76q5 1 17 3t29 4l46 5q2 0 3.5 -0.5t3.5 -0.5q5 0 9.5 1t9.5 3q0 -5 -0.5 -15.5t-0.5 -22t-0.5 -20.5l-0.5 -9q0 -18 -4 -34.5t-4 -29.5q0 -11 8.5 -21t25.5 -10q12 0 19 9t11 22.5t5.5 29t1.5 27.5v8
q2 8 4 23t2 29q0 5 -0.5 10t-1.5 10zM314 534q-11 9 -27 15.5t-33 6.5h-8q-18 3 -32.5 6.5t-31 6t-39 4.5t-56.5 2q-7 -2 -16 -12t-9 -25q0 -11 6 -21q35 -7 59.5 -7t46.5 -8h6q33 0 46.5 -7.5t13.5 -8.5q0 -8 -6 -22.5t-15 -29.5t-18.5 -28.5t-15.5 -19.5
q-10 -20 -21.5 -35.5t-28.5 -40.5q4 -12 9 -23.5t22 -11.5q9 0 21 3q7 10 22.5 26.5t19.5 29.5l13 20l16 24t9.5 16l6.5 13.5t6 15.5q7 9 13.5 21.5t12 25.5t8.5 24t3 19q0 10 -3 21zM558 -4q0 -1 -1.5 15t-3 35.5t-3 35.5t-1.5 15q1 3 1 9q0 32 -10.5 52t-28.5 20
q-10 0 -18.5 -7.5t-11.5 -13.5q0 -17 1.5 -28.5l3.5 -26t3.5 -34t1.5 -50.5l-45 -3q-16 -2 -26 -3t-14 -3h-11q-9 0 -21.5 -1.5l-24.5 -3t-21.5 -3t-10.5 -1.5q-2 0 -4 0.5t-5 0.5q-5 0 -13.5 -0.5t-17 -1.5t-15 -2t-8.5 -1q-1 5 -1 35v14q0 14 -2 22q0 3 0.5 11.5t1.5 18.5
t1.5 19t0.5 14q0 14 -9 20.5t-15 6.5q-29 0 -36 -26t-7 -86q0 -39 4 -51q-1 -5 -1 -11v-14q0 -11 0.5 -26t0.5 -27v-18t-1 -12q0 -10 3 -53l4 -60q-1 0 16 -1t39 -2.5t42.5 -3.5t26.5 -2q5 -1 12 -1h17t22 0.5t26 0.5h79q10 -3 19 -3q23 0 39 13.5t16 34.5q0 3 -2 7
q2 12 4.5 28.5t2.5 31.5q0 12 -3 21q2 9 2.5 19t0.5 21v38v11t1 10zM492 -45q0 -29 -0.5 -48t-2 -33.5t-3 -25t-3.5 -21.5q-10 -2 -40 -2q-41 0 -69 1t-38 4q-5 -1 -18 -1q-15 0 -31.5 1.5l-27.5 2.5q0 6 -1 17t-1 19v5q0 4 -0.5 12.5t-1 18t-0.5 17.5v13l113 10q7 4 57 7z
" />
    <glyph glyph-name="uniAC2F" unicode="&#xac2f;" 
d="M730 412q0 11 1 22t1 22t-1 21.5t-4 22.5q2 5 2 10.5v11.5q0 9 -0.5 24.5t-4 30.5t-11 25.5t-20.5 10.5q-18 0 -28.5 -6.5t-10.5 -21.5q0 -10 1.5 -20t2.5 -21q5 -10 4 -22.5t5 -24.5q-2 -5 -3 -15t-4 -10q-29 0 -51.5 -6t-48.5 -6h-11v26q0 18 -2 28v7q0 13 -3 29.5
t-3 24.5l-6 26.5t-7.5 24t-13 17.5t-21.5 7q-33 0 -33 -24q0 -5 0.5 -6.5t1.5 -5.5l3 -12t5 -25q5 -26 9 -35q-2 -10 -2 -17q0 -14 3.5 -31t3.5 -22q0 -12 -1 -30.5t-1 -33.5v-3q0 -2 -0.5 -9t-1.5 -16t-1.5 -18.5t-0.5 -16.5q0 -14 3 -21q-1 -5 -3 -14t-3.5 -19.5l-3 -21
t-1.5 -17.5q0 -14 8 -19.5t20 -5.5q16 0 24.5 9t13 28.5t6.5 50.5l5 76q5 1 17 3t29 4l46 5q2 0 3.5 -0.5t3.5 -0.5q5 0 9.5 1t9.5 3q0 -5 -0.5 -15.5t-0.5 -22t-0.5 -20.5l-0.5 -9q0 -18 -4 -34.5t-4 -29.5q0 -11 8.5 -21t25.5 -10q12 0 19 9t11 22.5t5.5 29t1.5 27.5v8
q2 8 4 23t2 29q0 5 -0.5 10t-1.5 10zM314 534q-11 9 -27 15.5t-33 6.5h-8q-18 3 -32.5 6.5t-31 6t-39 4.5t-56.5 2q-7 -2 -16 -12t-9 -25q0 -11 6 -21q35 -7 59.5 -7t46.5 -8h6q33 0 46.5 -7.5t13.5 -8.5q0 -8 -6 -22.5t-15 -29.5t-18.5 -28.5t-15.5 -19.5
q-10 -20 -21.5 -35.5t-28.5 -40.5q4 -12 9 -23.5t22 -11.5q9 0 21 3q7 10 22.5 26.5t19.5 29.5l13 20l16 24t9.5 16l6.5 13.5t6 15.5q7 9 13.5 21.5t12 25.5t8.5 24t3 19q0 10 -3 21zM543 -21q-9 19 -18.5 28t-19 15.5l-20.5 13.5t-24 24q-14 10 -27 17.5t-22 17.5
q5 6 15.5 17t11.5 24q-10 31 -43 31q-9 0 -13 -4l-28 -32q-15 -18 -21.5 -24.5l-9.5 -9.5t-6.5 -6t-12.5 -15l-19 -25q-7 -9 -17.5 -20l-21.5 -23.5t-19.5 -26t-11.5 -27.5q0 -2 3.5 -7t9 -10t12.5 -9t14 -4q9 0 17.5 9.5t17.5 22.5t19 26t23 20q1 2 6 9t11 14.5t12 14
t9 8.5l19 -18q13 -12 21 -15q19 -15 33.5 -29l26.5 -25.5t22 -19t21 -9.5q1 0 6 4t11 10t10.5 12.5t4.5 12.5q0 2 -2 8z" />
    <glyph glyph-name="uniAC30" unicode="&#xac30;" 
d="M373 10q-1 3 -3.5 4t-7 3.5t-10.5 8t-14 16.5q-15 10 -26.5 22.5t-19.5 15.5q1 2 6.5 7t11.5 12t11 14t5 13q0 11 -7.5 24.5t-24.5 13.5q-14 0 -28 -11.5t-27.5 -26.5l-26.5 -30t-23 -21l-43 -49q-10 -13 -26 -30t-21 -34q0 -6 11 -19t26 -13q5 0 17.5 10.5t28 26
l33 33.5l33.5 34q15 -10 31 -24t29 -27l21 -21.5t8 -7.5q-6 -9 -12 -20.5l-12 -23t-10 -22t-5 -17.5q1 -4 12.5 -14.5t24.5 -10.5q14 0 28 22.5t38 68.5q8 13 14.5 22l12 16.5l11 15.5l13.5 20q3 -2 6.5 -7t8 -10.5t9 -10t7.5 -5.5q16 -10 24.5 -21.5t17.5 -18.5
q4 -3 10 -10.5l12.5 -15t14 -14t13.5 -7.5l25 11q15 6 15 19q0 10 -6.5 20.5t-14.5 19.5t-17 16l-13 10q-4 6 -14 16l-22 21l-23 21.5l-18 17.5l21 36q17 28 17 40q-6 14 -16 19t-25 5h-14.5t-8 -8l-15 -28t-34.5 -60q-3 -2 -8.5 -9.5t-11 -16.5l-11 -18t-8.5 -13zM314 534
q-11 9 -27 15.5t-33 6.5h-8q-18 3 -32.5 6.5t-31 6t-39 4.5t-56.5 2q-7 -2 -16 -12t-9 -25q0 -11 6 -21q35 -7 59.5 -7t46.5 -8h6q33 0 46.5 -7.5t13.5 -8.5q0 -8 -6 -22.5t-15 -29.5t-18.5 -28.5t-15.5 -19.5q-10 -20 -21.5 -35.5t-28.5 -40.5q4 -12 9 -23.5t22 -11.5
q9 0 21 3q7 10 22.5 26.5t19.5 29.5l13 20l16 24t9.5 16l6.5 13.5t6 15.5q7 9 13.5 21.5t12 25.5t8.5 24t3 19q0 10 -3 21zM730 412q0 11 1 22t1 22t-1 21.5t-4 22.5q2 5 2 10.5v11.5q0 9 -0.5 24.5t-4 30.5t-11 25.5t-20.5 10.5q-18 0 -28.5 -6.5t-10.5 -21.5
q0 -10 1.5 -20t2.5 -21q5 -10 4 -22.5t5 -24.5q-2 -5 -3 -15t-4 -10q-29 0 -51.5 -6t-48.5 -6h-11v26q0 18 -2 28v7q0 13 -3 29.5t-3 24.5l-6 26.5t-7.5 24t-13 17.5t-21.5 7q-33 0 -33 -24q0 -5 0.5 -6.5t1.5 -5.5l3 -12t5 -25q5 -26 9 -35q-2 -10 -2 -17q0 -14 3.5 -31
t3.5 -22q0 -12 -1 -30.5t-1 -33.5v-3q0 -2 -0.5 -9t-1.5 -16t-1.5 -18.5t-0.5 -16.5q0 -14 3 -21q-1 -5 -3 -14t-3.5 -19.5l-3 -21t-1.5 -17.5q0 -14 8 -19.5t20 -5.5q16 0 24.5 9t13 28.5t6.5 50.5l5 76q5 1 17 3t29 4l46 5q2 0 3.5 -0.5t3.5 -0.5q5 0 9.5 1t9.5 3
q0 -5 -0.5 -15.5t-0.5 -22t-0.5 -20.5l-0.5 -9q0 -18 -4 -34.5t-4 -29.5q0 -11 8.5 -21t25.5 -10q12 0 19 9t11 22.5t5.5 29t1.5 27.5v8q2 8 4 23t2 29q0 5 -0.5 10t-1.5 10z" />
    <glyph glyph-name="uniAC31" unicode="&#xac31;" 
d="M730 412q0 11 1 22t1 22t-1 21.5t-4 22.5q2 5 2 10.5v11.5q0 9 -0.5 24.5t-4 30.5t-11 25.5t-20.5 10.5q-18 0 -28.5 -6.5t-10.5 -21.5q0 -10 1.5 -20t2.5 -21q5 -10 4 -22.5t5 -24.5q-2 -5 -3 -15t-4 -10q-29 0 -51.5 -6t-48.5 -6h-11v26q0 18 -2 28v7q0 13 -3 29.5
t-3 24.5l-6 26.5t-7.5 24t-13 17.5t-21.5 7q-33 0 -33 -24q0 -5 0.5 -6.5t1.5 -5.5l3 -12t5 -25q5 -26 9 -35q-2 -10 -2 -17q0 -14 3.5 -31t3.5 -22q0 -12 -1 -30.5t-1 -33.5v-3q0 -2 -0.5 -9t-1.5 -16t-1.5 -18.5t-0.5 -16.5q0 -14 3 -21q-1 -5 -3 -14t-3.5 -19.5l-3 -21
t-1.5 -17.5q0 -14 8 -19.5t20 -5.5q16 0 24.5 9t13 28.5t6.5 50.5l5 76q5 1 17 3t29 4l46 5q2 0 3.5 -0.5t3.5 -0.5q5 0 9.5 1t9.5 3q0 -5 -0.5 -15.5t-0.5 -22t-0.5 -20.5l-0.5 -9q0 -18 -4 -34.5t-4 -29.5q0 -11 8.5 -21t25.5 -10q12 0 19 9t11 22.5t5.5 29t1.5 27.5v8
q2 8 4 23t2 29q0 5 -0.5 10t-1.5 10zM314 534q-11 9 -27 15.5t-33 6.5h-8q-18 3 -32.5 6.5t-31 6t-39 4.5t-56.5 2q-7 -2 -16 -12t-9 -25q0 -11 6 -21q35 -7 59.5 -7t46.5 -8h6q33 0 46.5 -7.5t13.5 -8.5q0 -8 -6 -22.5t-15 -29.5t-18.5 -28.5t-15.5 -19.5
q-10 -20 -21.5 -35.5t-28.5 -40.5q4 -12 9 -23.5t22 -11.5q9 0 21 3q7 10 22.5 26.5t19.5 29.5l13 20l16 24t9.5 16l6.5 13.5t6 15.5q7 9 13.5 21.5t12 25.5t8.5 24t3 19q0 10 -3 21zM490 21q0 2 0.5 5t0.5 7q0 11 -2.5 29t-2.5 25q0 2 0.5 3t0.5 2q-10 14 -15 23.5
t-11.5 16.5t-17.5 12.5t-33 11.5l-19.5 5.5t-13.5 1.5h-2.5t-3.5 -0.5t-10 -1l-20 -1.5q-14 -1 -20 -1.5t-9 -3t-7 -8t-15 -16.5q-13 -13 -20 -22.5t-10 -17.5t-3.5 -16t-0.5 -18q0 -13 0.5 -24.5t4 -23.5t11.5 -25t24 -29q20 -20 32 -25.5t28 -5.5q20 0 43 6t47 14
q6 7 13.5 18.5l14.5 23t11.5 21t4.5 14.5zM422 67v-8q0 -24 -3 -37.5t-10 -20.5t-19 -8.5t-29 -2.5q-20 7 -28.5 25.5t-9.5 38.5q1 15 8 24.5t15.5 14t16.5 6t11 1.5q10 0 19 -5t15 -11t10 -11t4 -6z" />
    <glyph glyph-name="uniAC38" unicode="&#xac38;" 
d="M808 246q-2 0 -13.5 1t-25 1.5t-25 1.5t-12.5 1q-2 0 -11.5 1t-20 2.5t-20 2.5t-11.5 1q-5 -1 -15.5 -1h-26.5q-15 0 -25 1.5t-15 3.5q0 2 0.5 14t1.5 27t1.5 30t0.5 23v10q24 2 45 3t43 8q2 0 3.5 -0.5t3.5 -0.5q7 0 21.5 1t29.5 3l27 3.5t16 3.5q16 5 16 33
q0 11 -6.5 20.5t-23.5 9.5q-11 0 -28 -2l-34.5 -4t-31.5 -5t-20 -4h-7q-12 0 -28.5 -3t-26.5 -3l-5 83q-2 37 -5 60.5t-7 36.5t-9.5 17.5t-14.5 4.5q-16 0 -27 -13t-13 -22l2 -16.5l4.5 -37l4.5 -38t3 -18.5q-3 -11 -3 -39q0 -26 1.5 -57t1.5 -45v-13l-3 -61q-1 -20 -2 -33
t-2 -19v-9q0 -10 -2 -29.5t-5 -41t-5 -40t-2 -25.5q0 -15 7.5 -20t18.5 -5q25 0 30 7.5t7 31.5q2 31 6 38v2q0 2 1.5 11t3.5 19.5t3.5 20.5t1.5 15v5q4 0 12.5 -0.5l17.5 -1t17 -1t11 -0.5q22 0 43.5 -3.5t26.5 -4.5h8q7 0 17.5 -0.5t21 -1.5t20 -1.5t14.5 -0.5q16 2 23 11
t7 20q0 16 -12 31zM334 414q-11 9 -27 15.5t-33 6.5h-8q-18 3 -32.5 6.5t-31 6t-39 4.5t-56.5 2q-7 -2 -16 -12t-9 -25q0 -11 6 -21q35 -7 59.5 -7t46.5 -8h6q33 0 46.5 -7.5t13.5 -8.5q0 -8 -6 -22.5t-15 -29.5t-18.5 -28.5t-15.5 -19.5q-10 -20 -21.5 -35.5t-28.5 -40.5
q4 -12 9 -23.5t22 -11.5q9 0 21 3q7 10 22.5 26.5t19.5 29.5l13 20l16 24t9.5 16l6.5 13.5t6 15.5q7 9 13.5 21.5t12 25.5t8.5 24t3 19q0 10 -3 21z" />
    <glyph glyph-name="uniAC39" unicode="&#xac39;" 
d="M808 366q-2 0 -13.5 1t-25 1.5t-25 1.5t-12.5 1q-2 0 -11.5 1t-20 2.5t-20 2.5t-11.5 1q-5 -1 -15.5 -1h-26.5q-15 0 -25 1.5t-15 3.5q0 2 0.5 14t1.5 27t1.5 30t0.5 23v10q24 2 45 3t43 8q2 0 3.5 -0.5t3.5 -0.5q7 0 21.5 1t29.5 3l27 3.5t16 3.5q16 5 16 33
q0 11 -6.5 20.5t-23.5 9.5q-11 0 -28 -2l-34.5 -4t-31.5 -5t-20 -4h-7q-12 0 -28.5 -3t-26.5 -3l-5 83q-2 37 -5 60.5t-7 36.5t-9.5 17.5t-14.5 4.5q-16 0 -27 -13t-13 -22l2 -16.5l4.5 -37l4.5 -38t3 -18.5q-3 -11 -3 -39q0 -26 1.5 -57t1.5 -45v-13l-3 -61q-1 -20 -2 -33
t-2 -19v-9q0 -9 -2 -23.5t-5 -29t-5 -26.5t-2 -18q0 -14 8 -19t18 -5t16 1.5t9 0.5q4 3 7 11.5t5.5 17.5t4 16.5t1.5 10.5q0 6 5 23t5 29q4 0 12.5 -0.5l17.5 -1t17 -1t11 -0.5q22 0 43.5 -3.5t26.5 -4.5h8q7 0 17.5 -0.5t21 -1.5t20 -1.5t14.5 -0.5q16 2 23 11t7 20
q0 16 -12 31zM334 534q-11 9 -27 15.5t-33 6.5h-8q-18 3 -32.5 6.5t-31 6t-39 4.5t-56.5 2q-7 -2 -16 -12t-9 -25q0 -11 6 -21q35 -7 59.5 -7t46.5 -8h6q33 0 46.5 -7.5t13.5 -8.5q0 -8 -6 -22.5t-15 -29.5t-18.5 -28.5t-15.5 -19.5q-10 -20 -21.5 -35.5t-28.5 -40.5
q4 -12 9 -23.5t22 -11.5q9 0 21 3q7 10 22.5 26.5t19.5 29.5l13 20l16 24t9.5 16l6.5 13.5t6 15.5q7 9 13.5 21.5t12 25.5t8.5 24t3 19q0 10 -3 21zM494 91q4 13 4 25q0 21 -16 33.5t-39 12.5q-4 0 -8 -2l-24 4.5t-25 2.5q-9 0 -18 -3q-6 2 -12 2h-11q-13 0 -23.5 -1.5
t-21.5 -1.5q-7 0 -11 1q-42 -5 -57 -15t-15 -26q0 -10 8 -18.5t13 -11.5q9 0 19.5 2.5t25.5 2.5q3 0 6.5 -0.5t7.5 -0.5q7 2 21 3t24 1h8q3 0 6.5 0.5t7.5 0.5q9 0 19.5 -1t19.5 -2.5t15.5 -3.5t6.5 -5v-13t-2 -19l-5 -44v-8q0 -20 -8.5 -44.5t-8.5 -50.5q17 -13 34 -13
q11 0 17 2.5t9.5 8.5t6 16t7.5 25q6 17 9.5 31t6 28.5t3.5 30t1 34.5q0 5 -0.5 9t-0.5 8z" />
    <glyph glyph-name="uniAC3C" unicode="&#xac3c;" 
d="M808 366q-2 0 -13.5 1t-25 1.5t-25 1.5t-12.5 1q-2 0 -11.5 1t-20 2.5t-20 2.5t-11.5 1q-5 -1 -15.5 -1h-26.5q-15 0 -25 1.5t-15 3.5q0 2 0.5 14t1.5 27t1.5 30t0.5 23v10q24 2 45 3t43 8q2 0 3.5 -0.5t3.5 -0.5q7 0 21.5 1t29.5 3l27 3.5t16 3.5q16 5 16 33
q0 11 -6.5 20.5t-23.5 9.5q-11 0 -28 -2l-34.5 -4t-31.5 -5t-20 -4h-7q-12 0 -28.5 -3t-26.5 -3l-5 83q-2 37 -5 60.5t-7 36.5t-9.5 17.5t-14.5 4.5q-16 0 -27 -13t-13 -22l2 -16.5l4.5 -37l4.5 -38t3 -18.5q-3 -11 -3 -39q0 -26 1.5 -57t1.5 -45v-13l-3 -61q-1 -20 -2 -33
t-2 -19v-9q0 -9 -2 -23.5t-5 -29t-5 -26.5t-2 -18q0 -14 8 -19t18 -5t16 1.5t9 0.5q4 3 7 11.5t5.5 17.5t4 16.5t1.5 10.5q0 6 5 23t5 29q4 0 12.5 -0.5l17.5 -1t17 -1t11 -0.5q22 0 43.5 -3.5t26.5 -4.5h8q7 0 17.5 -0.5t21 -1.5t20 -1.5t14.5 -0.5q16 2 23 11t7 20
q0 16 -12 31zM334 534q-11 9 -27 15.5t-33 6.5h-8q-18 3 -32.5 6.5t-31 6t-39 4.5t-56.5 2q-7 -2 -16 -12t-9 -25q0 -11 6 -21q35 -7 59.5 -7t46.5 -8h6q33 0 46.5 -7.5t13.5 -8.5q0 -8 -6 -22.5t-15 -29.5t-18.5 -28.5t-15.5 -19.5q-10 -20 -21.5 -35.5t-28.5 -40.5
q4 -12 9 -23.5t22 -11.5q9 0 21 3q7 10 22.5 26.5t19.5 29.5l13 20l16 24t9.5 16l6.5 13.5t6 15.5q7 9 13.5 21.5t12 25.5t8.5 24t3 19q0 10 -3 21zM494 -42q15 16 15 29q0 10 -8 18.5t-13 11.5q-36 -4 -57 -7t-45 -3q-10 0 -23 0.5t-25.5 0.5t-23 0.5t-16.5 0.5
q-7 21 -6.5 39t-1.5 49v18q0 11 -1 24t-3 23q-11 6 -19 9.5t-16 3.5q-6 0 -11.5 -2t-10 -9t-7 -20.5t-2.5 -36.5q0 -31 2.5 -51.5t6.5 -46.5q-1 -5 -1 -15q0 -29 15 -48q8 -3 19.5 -4.5t20.5 -1.5q11 0 14 2q11 -1 25 -2t28 -1q30 0 51 1.5t37.5 3.5t29 5.5t26.5 8.5z" />
    <glyph glyph-name="uniAC40" unicode="&#xac40;" 
d="M808 366q-2 0 -13.5 1t-25 1.5t-25 1.5t-12.5 1q-2 0 -11.5 1t-20 2.5t-20 2.5t-11.5 1q-5 -1 -15.5 -1h-26.5q-15 0 -25 1.5t-15 3.5q0 2 0.5 14t1.5 27t1.5 30t0.5 23v10q24 2 45 3t43 8q2 0 3.5 -0.5t3.5 -0.5q7 0 21.5 1t29.5 3l27 3.5t16 3.5q16 5 16 33
q0 11 -6.5 20.5t-23.5 9.5q-11 0 -28 -2l-34.5 -4t-31.5 -5t-20 -4h-7q-12 0 -28.5 -3t-26.5 -3l-5 83q-2 37 -5 60.5t-7 36.5t-9.5 17.5t-14.5 4.5q-16 0 -27 -13t-13 -22l2 -16.5l4.5 -37l4.5 -38t3 -18.5q-3 -11 -3 -39q0 -26 1.5 -57t1.5 -45v-13l-3 -61q-1 -20 -2 -33
t-2 -19v-9q0 -9 -2 -23.5t-5 -29t-5 -26.5t-2 -18q0 -14 8 -19t18 -5t16 1.5t9 0.5q4 3 7 11.5t5.5 17.5t4 16.5t1.5 10.5q0 6 5 23t5 29q4 0 12.5 -0.5l17.5 -1t17 -1t11 -0.5q22 0 43.5 -3.5t26.5 -4.5h8q7 0 17.5 -0.5t21 -1.5t20 -1.5t14.5 -0.5q16 2 23 11t7 20
q0 16 -12 31zM334 534q-11 9 -27 15.5t-33 6.5h-8q-18 3 -32.5 6.5t-31 6t-39 4.5t-56.5 2q-7 -2 -16 -12t-9 -25q0 -11 6 -21q35 -7 59.5 -7t46.5 -8h6q33 0 46.5 -7.5t13.5 -8.5q0 -8 -6 -22.5t-15 -29.5t-18.5 -28.5t-15.5 -19.5q-10 -20 -21.5 -35.5t-28.5 -40.5
q4 -12 9 -23.5t22 -11.5q9 0 21 3q7 10 22.5 26.5t19.5 29.5l13 20l16 24t9.5 16l6.5 13.5t6 15.5q7 9 13.5 21.5t12 25.5t8.5 24t3 19q0 10 -3 21zM572 -162q-6 3 -20 3q-20 0 -40 -3t-26 -3q-21 -3 -32.5 -4t-21.5 -1q-5 0 -9.5 0.5t-9.5 0.5q-6 -3 -34 -3q-23 0 -46 0.5
t-42 2.5q-22 1 -43 3q-1 3 -1 11q1 14 2 30t3 27l5 37q3 26 11 36q14 3 26.5 5t26 3.5t30.5 2.5t40 1h51q4 1 11.5 3.5t15.5 4.5t15 4t10 3q15 27 21 54t11 55q0 8 -4.5 26t-15.5 28q-21 5 -41.5 11t-28.5 6q-3 -1 -13 -1h-10t-12 1l-42 4q-10 6 -30.5 6.5t-30.5 3.5
q-9 -5 -13 -15t-4 -20q0 -15 12.5 -23t28.5 -11.5t30.5 -4t18.5 -0.5q2 -1 11 -3t25 -4l47 -7q0 -16 -5 -31.5t-11 -26.5q-7 -1 -17 -1h-24h-9q-10 0 -17 -1t-12 -3q-5 1 -16 1q-29 0 -51 -4.5t-50 -4.5h-8q-20 0 -32 -14t-12 -40q0 -6 3 -9l-9 -73q-5 -45 -7.5 -59
t-2.5 -12q0 -11 6 -21.5t14.5 -19t18.5 -13.5t18 -6q30 -2 59 -3.5t53 -2.5t39.5 -1h17.5q24 0 50.5 2.5t50.5 5.5t41.5 5.5t22.5 2.5q6 2 10.5 12t4.5 26q0 13 -8 21z" />
    <glyph glyph-name="uniAC4B" unicode="&#xac4b;" 
d="M808 366q-2 0 -13.5 1t-25 1.5t-25 1.5t-12.5 1q-2 0 -11.5 1t-20 2.5t-20 2.5t-11.5 1q-5 -1 -15.5 -1h-26.5q-15 0 -25 1.5t-15 3.5q0 2 0.5 14t1.5 27t1.5 30t0.5 23v10q24 2 45 3t43 8q2 0 3.5 -0.5t3.5 -0.5q7 0 21.5 1t29.5 3l27 3.5t16 3.5q16 5 16 33
q0 11 -6.5 20.5t-23.5 9.5q-11 0 -28 -2l-34.5 -4t-31.5 -5t-20 -4h-7q-12 0 -28.5 -3t-26.5 -3l-5 83q-2 37 -5 60.5t-7 36.5t-9.5 17.5t-14.5 4.5q-16 0 -27 -13t-13 -22l2 -16.5l4.5 -37l4.5 -38t3 -18.5q-3 -11 -3 -39q0 -26 1.5 -57t1.5 -45v-13l-3 -61q-1 -20 -2 -33
t-2 -19v-9q0 -9 -2 -23.5t-5 -29t-5 -26.5t-2 -18q0 -14 8 -19t18 -5t16 1.5t9 0.5q4 3 7 11.5t5.5 17.5t4 16.5t1.5 10.5q0 6 5 23t5 29q4 0 12.5 -0.5l17.5 -1t17 -1t11 -0.5q22 0 43.5 -3.5t26.5 -4.5h8q7 0 17.5 -0.5t21 -1.5t20 -1.5t14.5 -0.5q16 2 23 11t7 20
q0 16 -12 31zM334 534q-11 9 -27 15.5t-33 6.5h-8q-18 3 -32.5 6.5t-31 6t-39 4.5t-56.5 2q-7 -2 -16 -12t-9 -25q0 -11 6 -21q35 -7 59.5 -7t46.5 -8h6q33 0 46.5 -7.5t13.5 -8.5q0 -8 -6 -22.5t-15 -29.5t-18.5 -28.5t-15.5 -19.5q-10 -20 -21.5 -35.5t-28.5 -40.5
q4 -12 9 -23.5t22 -11.5q9 0 21 3q7 10 22.5 26.5t19.5 29.5l13 20l16 24t9.5 16l6.5 13.5t6 15.5q7 9 13.5 21.5t12 25.5t8.5 24t3 19q0 10 -3 21zM533 -21q-9 19 -18.5 28t-19 15.5l-20.5 13.5t-24 24q-14 10 -27 17.5t-22 17.5q5 6 15.5 17t11.5 24q-10 31 -43 31
q-9 0 -13 -4l-28 -32q-15 -18 -21.5 -24.5l-9.5 -9.5t-6.5 -6t-12.5 -15l-19 -25q-7 -9 -17.5 -20l-21.5 -23.5t-19.5 -26t-11.5 -27.5q0 -2 3.5 -7t9 -10t12.5 -9t14 -4q9 0 17.5 9.5t17.5 22.5t19 26t23 20q1 2 6 9t11 14.5t12 14t9 8.5l19 -18q13 -12 21 -15
q19 -15 33.5 -29l26.5 -25.5t22 -19t21 -9.5q1 0 6 4t11 10t10.5 12.5t4.5 12.5q0 2 -2 8z" />
    <glyph glyph-name="uniAC4D" unicode="&#xac4d;" 
d="M808 366q-2 0 -13.5 1t-25 1.5t-25 1.5t-12.5 1q-2 0 -11.5 1t-20 2.5t-20 2.5t-11.5 1q-5 -1 -15.5 -1h-26.5q-15 0 -25 1.5t-15 3.5q0 2 0.5 14t1.5 27t1.5 30t0.5 23v10q24 2 45 3t43 8q2 0 3.5 -0.5t3.5 -0.5q7 0 21.5 1t29.5 3l27 3.5t16 3.5q16 5 16 33
q0 11 -6.5 20.5t-23.5 9.5q-11 0 -28 -2l-34.5 -4t-31.5 -5t-20 -4h-7q-12 0 -28.5 -3t-26.5 -3l-5 83q-2 37 -5 60.5t-7 36.5t-9.5 17.5t-14.5 4.5q-16 0 -27 -13t-13 -22l2 -16.5l4.5 -37l4.5 -38t3 -18.5q-3 -11 -3 -39q0 -26 1.5 -57t1.5 -45v-13l-3 -61q-1 -20 -2 -33
t-2 -19v-9q0 -9 -2 -23.5t-5 -29t-5 -26.5t-2 -18q0 -14 8 -19t18 -5t16 1.5t9 0.5q4 3 7 11.5t5.5 17.5t4 16.5t1.5 10.5q0 6 5 23t5 29q4 0 12.5 -0.5l17.5 -1t17 -1t11 -0.5q22 0 43.5 -3.5t26.5 -4.5h8q7 0 17.5 -0.5t21 -1.5t20 -1.5t14.5 -0.5q16 2 23 11t7 20
q0 16 -12 31zM334 534q-11 9 -27 15.5t-33 6.5h-8q-18 3 -32.5 6.5t-31 6t-39 4.5t-56.5 2q-7 -2 -16 -12t-9 -25q0 -11 6 -21q35 -7 59.5 -7t46.5 -8h6q33 0 46.5 -7.5t13.5 -8.5q0 -8 -6 -22.5t-15 -29.5t-18.5 -28.5t-15.5 -19.5q-10 -20 -21.5 -35.5t-28.5 -40.5
q4 -12 9 -23.5t22 -11.5q9 0 21 3q7 10 22.5 26.5t19.5 29.5l13 20l16 24t9.5 16l6.5 13.5t6 15.5q7 9 13.5 21.5t12 25.5t8.5 24t3 19q0 10 -3 21zM480 21q0 2 0.5 5t0.5 7q0 11 -2.5 29t-2.5 25q0 2 0.5 3t0.5 2q-10 14 -15 23.5t-11.5 16.5t-17.5 12.5t-33 11.5
l-19.5 5.5t-13.5 1.5h-2.5t-3.5 -0.5t-10 -1l-20 -1.5q-14 -1 -20 -1.5t-9 -3t-7 -8t-15 -16.5q-13 -13 -20 -22.5t-10 -17.5t-3.5 -16t-0.5 -18q0 -13 0.5 -24.5t4 -23.5t11.5 -25t24 -29q20 -20 32 -25.5t28 -5.5q20 0 43 6t47 14q6 7 13.5 18.5l14.5 23t11.5 21t4.5 14.5
zM412 67v-8q0 -24 -3 -37.5t-10 -20.5t-19 -8.5t-29 -2.5q-20 7 -28.5 25.5t-9.5 38.5q1 15 8 24.5t15.5 14t16.5 6t11 1.5q10 0 19 -5t15 -11t10 -11t4 -6z" />
    <glyph glyph-name="uniAC54" unicode="&#xac54;" 
d="M730 320q1 12 1.5 29.5t0.5 40.5q0 15 -1.5 27t-3.5 23q1 5 1.5 10.5t0.5 13.5q0 13 -1.5 30.5t-3.5 34.5t-4.5 32.5t-3.5 24.5q-9 11 -25 11q-39 0 -39 -29q0 -16 3 -32.5t3 -30.5q0 -3 -0.5 -6t-0.5 -6q0 -12 3 -24q-8 -2 -24 -3t-27 -4q-5 1 -13 1q-12 0 -22.5 -2.5
t-24.5 -2.5q-2 22 -3 52t-5 57t-11 45.5t-21 18.5q-16 0 -27 -13t-13 -22q0 1 1.5 -18.5t3.5 -43t4 -43.5t3 -21q-1 -11 -1.5 -22.5t-0.5 -26.5q0 -22 1 -42.5t1 -33.5v-13l-3 -61q-1 -20 -2 -33t-2 -19v-9q0 -10 -2 -28.5l-4 -38t-4 -36t-2 -23.5q0 -15 7.5 -20t18.5 -5
q13 1 20 2.5t11 5t5 11t2 20.5q2 31 6 38v2q0 4 1.5 17t3 28t3 28t1.5 16q24 0 41 -3.5t45 -5.5q25 -2 33 -4q0 -6 -1.5 -23.5t-3 -38t-2.5 -39t-1 -27.5q0 -11 8.5 -17.5t24.5 -6.5q15 0 22.5 10t11 34t5.5 63.5t7 97.5q1 8 1 15.5v13.5v13.5t-2 10.5zM314 414
q-11 9 -27 15.5t-33 6.5h-8q-18 3 -32.5 6.5t-31 6t-39 4.5t-56.5 2q-7 -2 -16 -12t-9 -25q0 -11 6 -21q35 -7 59.5 -7t46.5 -8h6q33 0 46.5 -7.5t13.5 -8.5q0 -8 -6 -22.5t-15 -29.5t-18.5 -28.5t-15.5 -19.5q-10 -20 -21.5 -35.5t-28.5 -40.5q4 -12 9 -23.5t22 -11.5
q9 0 21 3q7 10 22.5 26.5t19.5 29.5l13 20l16 24t9.5 16l6.5 13.5t6 15.5q7 9 13.5 21.5t12 25.5t8.5 24t3 19q0 10 -3 21zM665 280q-13 3 -30.5 3.5t-28.5 2.5h-5q-12 0 -27.5 2t-25.5 4q1 2 1 9v17v20v34t1 24q3 -1 9 -1q19 0 32.5 2t25 4l23 4t25.5 2q1 -11 1 -23v-27
v-54.5t-1 -22.5z" />
    <glyph glyph-name="uniAC58" unicode="&#xac58;" 
d="M730 440q1 12 1.5 29.5t0.5 40.5q0 15 -1.5 27t-3.5 23q1 5 1.5 10.5t0.5 13.5q0 13 -1.5 30.5t-3.5 34.5t-4.5 32.5t-3.5 24.5q-9 11 -25 11q-39 0 -39 -29q0 -16 3 -32.5t3 -30.5q0 -3 -0.5 -6t-0.5 -6q0 -12 3 -24q-8 -2 -24 -3t-27 -4q-5 1 -13 1q-12 0 -22.5 -2.5
t-24.5 -2.5q-2 22 -3 52t-5 57t-11 45.5t-21 18.5q-16 0 -27 -13t-13 -22q0 1 2 -18.5l4.5 -43t5 -43.5t2.5 -21q-1 -11 -1.5 -22.5t-0.5 -26.5q0 -22 1 -42.5t1 -33.5v-13l-3 -61q-1 -20 -2 -33t-2 -19v-9q0 -9 -2 -22t-5 -25.5t-5 -23.5t-2 -17q0 -14 8 -18.5t18 -4.5
q10 1 16 1.5t9 0.5q5 4 7.5 11.5t4.5 16t3 16t3 11.5v2q0 3 1.5 12.5t3.5 20.5t3.5 21t1.5 15q24 0 41 -3.5t45 -5.5q25 -2 33 -4q-1 -9 -2 -21.5t-2.5 -25t-2.5 -24t-1 -18.5q0 -10 9 -16.5t24 -6.5t24.5 17t14.5 44.5t6.5 62.5t1.5 70v13.5t-2 10.5zM314 534
q-11 9 -27 15.5t-33 6.5h-8q-18 3 -32.5 6.5t-31 6t-39 4.5t-56.5 2q-7 -2 -16 -12t-9 -25q0 -11 6 -21q35 -7 59.5 -7t46.5 -8h6q33 0 46.5 -7.5t13.5 -8.5q0 -8 -6 -22.5t-15 -29.5t-18.5 -28.5t-15.5 -19.5q-10 -20 -21.5 -35.5t-28.5 -40.5q4 -12 9 -23.5t22 -11.5
q9 0 21 3q7 10 22.5 26.5t19.5 29.5l13 20l16 24t9.5 16l6.5 13.5t6 15.5q7 9 13.5 21.5t12 25.5t8.5 24t3 19q0 10 -3 21zM504 -42q15 16 15 29q0 10 -8 18.5t-13 11.5q-36 -4 -57 -7t-45 -3q-10 0 -23 0.5t-25.5 0.5t-23 0.5t-16.5 0.5q-7 21 -6.5 39t-1.5 49v18
q0 11 -1 24t-3 23q-11 6 -19 9.5t-16 3.5q-6 0 -11.5 -2t-10 -9t-7 -20.5t-2.5 -36.5q0 -31 2.5 -51.5t6.5 -46.5q-1 -5 -1 -15q0 -29 15 -48q8 -3 19.5 -4.5t20.5 -1.5q11 0 14 2q11 -1 25 -2t28 -1q30 0 51 1.5t37.5 3.5t29 5.5t26.5 8.5zM665 400q-13 3 -30.5 3.5
t-28.5 2.5h-5q-12 0 -27.5 2t-25.5 4q1 2 1 9v17v20v34t1 24q3 -1 9 -1q19 0 32.5 2t25 4l23 4t25.5 2q1 -11 1 -23v-27v-54.5t-1 -22.5z" />
    <glyph glyph-name="uniAC5C" unicode="&#xac5c;" 
d="M730 440q1 12 1.5 29.5t0.5 40.5q0 15 -1.5 27t-3.5 23q1 5 1.5 10.5t0.5 13.5q0 13 -1.5 30.5t-3.5 34.5t-4.5 32.5t-3.5 24.5q-9 11 -25 11q-39 0 -39 -29q0 -16 3 -32.5t3 -30.5q0 -3 -0.5 -6t-0.5 -6q0 -12 3 -24q-8 -2 -24 -3t-27 -4q-5 1 -13 1q-12 0 -22.5 -2.5
t-24.5 -2.5q-2 22 -3 52t-5 57t-11 45.5t-21 18.5q-16 0 -27 -13t-13 -22q0 1 2 -18.5l4.5 -43t5 -43.5t2.5 -21q-1 -11 -1.5 -22.5t-0.5 -26.5q0 -22 1 -42.5t1 -33.5v-13l-3 -61q-1 -20 -2 -33t-2 -19v-9q0 -9 -2 -22t-5 -25.5t-5 -23.5t-2 -17q0 -14 8 -18.5t18 -4.5
q10 1 16 1.5t9 0.5q5 4 7.5 11.5t4.5 16t3 16t3 11.5v2q0 3 1.5 12.5t3.5 20.5t3.5 21t1.5 15q24 0 41 -3.5t45 -5.5q25 -2 33 -4q-1 -9 -2 -21.5t-2.5 -25t-2.5 -24t-1 -18.5q0 -10 9 -16.5t24 -6.5t24.5 17t14.5 44.5t6.5 62.5t1.5 70v13.5t-2 10.5zM314 534
q-11 9 -27 15.5t-33 6.5h-8q-18 3 -32.5 6.5t-31 6t-39 4.5t-56.5 2q-7 -2 -16 -12t-9 -25q0 -11 6 -21q35 -7 59.5 -7t46.5 -8h6q33 0 46.5 -7.5t13.5 -8.5q0 -8 -6 -22.5t-15 -29.5t-18.5 -28.5t-15.5 -19.5q-10 -20 -21.5 -35.5t-28.5 -40.5q4 -12 9 -23.5t22 -11.5
q9 0 21 3q7 10 22.5 26.5t19.5 29.5l13 20l16 24t9.5 16l6.5 13.5t6 15.5q7 9 13.5 21.5t12 25.5t8.5 24t3 19q0 10 -3 21zM582 -162q-6 3 -20 3q-20 0 -40 -3t-26 -3q-21 -3 -32.5 -4t-21.5 -1q-5 0 -9.5 0.5t-9.5 0.5q-6 -3 -34 -3q-23 0 -46 0.5t-42 2.5q-22 1 -43 3
q-1 3 -1 11q1 14 2 30t3 27l5 37q3 26 11 36q14 3 26.5 5t26 3.5t30.5 2.5t40 1h51q4 1 11.5 3.5t15.5 4.5t15 4t10 3q15 27 21 54t11 55q0 8 -4.5 26t-15.5 28q-21 5 -41.5 11t-28.5 6q-3 -1 -13 -1h-10t-12 1l-42 4q-10 6 -30.5 6.5t-30.5 3.5q-9 -5 -13 -15t-4 -20
q0 -15 12.5 -23t28.5 -11.5t30.5 -4t18.5 -0.5q2 -1 11 -3t25 -4l47 -7q0 -16 -5 -31.5t-11 -26.5q-7 -1 -17 -1h-24h-9q-10 0 -17 -1t-12 -3q-5 1 -16 1q-29 0 -51 -4.5t-50 -4.5h-8q-20 0 -32 -14t-12 -40q0 -6 3 -9l-9 -73q-5 -45 -7.5 -59t-2.5 -12q0 -11 6 -21.5
t14.5 -19t18.5 -13.5t18 -6q30 -2 59 -3.5t53 -2.5t39.5 -1h17.5q24 0 50.5 2.5t50.5 5.5t41.5 5.5t22.5 2.5q6 2 10.5 12t4.5 26q0 13 -8 21zM665 400q-13 3 -30.5 3.5t-28.5 2.5h-5q-12 0 -27.5 2t-25.5 4q1 2 1 9v17v20v34t1 24q3 -1 9 -1q19 0 32.5 2t25 4l23 4t25.5 2
q1 -11 1 -23v-27v-54.5t-1 -22.5z" />
    <glyph glyph-name="uniAC70" unicode="&#xac70;" 
d="M676 261q1 7 1 17v24q0 29 -4 38q2 5 2 11.5v11.5v9.5v4t-0.5 9.5t-1.5 27q0 31 -4 43q1 3 1 11q0 6 -1 13.5t-3 17.5l-7 40q-8 14 -29 14q-16 0 -26 -6.5t-10 -20.5t3 -31.5t3 -38.5v-14q0 -9 3 -34t3 -50q-2 -1 -18.5 -2t-36 -2.5t-36 -3t-19.5 -1.5h-9q-8 0 -18.5 -1
t-23.5 -3l-57 -11q-15 -9 -15 -23t4 -21t10.5 -11t13.5 -4.5t13 -0.5q14 0 28 1t21 4q6 -2 11 -2q18 0 31.5 2t26 5t26.5 5t34 2q8 0 11 -0.5t3 -8.5q0 -7 -0.5 -24t-1.5 -35t-1.5 -32t-0.5 -15q1 -3 1 -12q0 -11 -2.5 -31.5t-2.5 -32.5q0 -36 36 -36q10 0 17 3.5t12 14
t7.5 29.5t2.5 50q0 15 -2 18q1 7 2 20t1.5 26.5t1 24t0.5 12.5zM344 414q-11 9 -27 15.5t-33 6.5h-8q-18 3 -32.5 6.5t-31 6t-39 4.5t-56.5 2q-7 -2 -16 -12t-9 -25q0 -11 6 -21q35 -7 59.5 -7t46.5 -8h6q33 0 46.5 -7.5t13.5 -8.5q0 -8 -6 -22.5t-15 -29.5t-18.5 -28.5
t-15.5 -19.5q-10 -20 -21.5 -35.5t-28.5 -40.5q4 -12 9 -23.5t22 -11.5q9 0 21 3q7 10 22.5 26.5t19.5 29.5l13 20l16 24t9.5 16l6.5 13.5t6 15.5q7 9 13.5 21.5t12 25.5t8.5 24t3 19q0 10 -3 21z" />
    <glyph glyph-name="uniAC71" unicode="&#xac71;" 
d="M676 381q1 7 1 17v24q0 29 -4 38q2 5 2 11.5v11.5v9.5v4t-0.5 9.5t-1.5 27q0 31 -4 43q1 3 1 11q0 6 -1 13.5t-3 17.5l-7 40q-8 14 -29 14q-16 0 -26 -6.5t-10 -20.5t3 -31.5t3 -38.5v-14q0 -9 3 -34t3 -50q-2 -1 -18.5 -2t-36 -2.5t-36 -3t-19.5 -1.5h-9q-8 0 -18.5 -1
t-23.5 -3l-57 -11q-15 -9 -15 -23t4 -21t10.5 -11t13.5 -4.5t13 -0.5q14 0 28 1t21 4q6 -2 11 -2q18 0 31.5 2t26 5t26.5 5t34 2q8 0 11 -0.5t3 -8.5q0 -6 -0.5 -20t-1.5 -28t-1.5 -25.5t-0.5 -12.5q1 -3 1 -11q0 -9 -2.5 -23t-2.5 -24q0 -34 36 -34q18 0 28.5 16.5
t10.5 63.5q0 12 -2 15q3 17 3.5 37t1.5 26zM344 534q-11 9 -27 15.5t-33 6.5h-8q-18 3 -32.5 6.5t-31 6t-39 4.5t-56.5 2q-7 -2 -16 -12t-9 -25q0 -11 6 -21q35 -7 59.5 -7t46.5 -8h6q33 0 46.5 -7.5t13.5 -8.5q0 -8 -6 -22.5t-15 -29.5t-18.5 -28.5t-15.5 -19.5
q-10 -20 -21.5 -35.5t-28.5 -40.5q4 -12 9 -23.5t22 -11.5q9 0 21 3q7 10 22.5 26.5t19.5 29.5l13 20l16 24t9.5 16l6.5 13.5t6 15.5q7 9 13.5 21.5t12 25.5t8.5 24t3 19q0 10 -3 21zM504 91q4 13 4 25q0 21 -16 33.5t-39 12.5q-4 0 -8 -2l-24 4.5t-25 2.5q-9 0 -18 -3
q-6 2 -12 2h-11q-13 0 -23.5 -1.5t-21.5 -1.5q-7 0 -11 1q-42 -5 -57 -15t-15 -26q0 -10 8 -18.5t13 -11.5q9 0 19.5 2.5t25.5 2.5q3 0 6.5 -0.5t7.5 -0.5q7 2 21 3t24 1h8q3 0 6.5 0.5t7.5 0.5q9 0 19.5 -1t19.5 -2.5t15.5 -3.5t6.5 -5v-13t-2 -19l-5 -44v-8
q0 -20 -8.5 -44.5t-8.5 -50.5q17 -13 34 -13q11 0 17 2.5t9.5 8.5t6 16t7.5 25q6 17 9.5 31t6 28.5t3.5 30t1 34.5q0 5 -0.5 9t-0.5 8z" />
    <glyph glyph-name="uniAC74" unicode="&#xac74;" 
d="M676 381q1 7 1 17v24q0 29 -4 38q2 5 2 11.5v11.5v9.5v4t-0.5 9.5t-1.5 27q0 31 -4 43q1 3 1 11q0 6 -1 13.5t-3 17.5l-7 40q-8 14 -29 14q-16 0 -26 -6.5t-10 -20.5t3 -31.5t3 -38.5v-14q0 -9 3 -34t3 -50q-2 -1 -18.5 -2t-36 -2.5t-36 -3t-19.5 -1.5h-9q-8 0 -18.5 -1
t-23.5 -3l-57 -11q-15 -9 -15 -23t4 -21t10.5 -11t13.5 -4.5t13 -0.5q14 0 28 1t21 4q6 -2 11 -2q18 0 31.5 2t26 5t26.5 5t34 2q8 0 11 -0.5t3 -8.5q0 -6 -0.5 -20t-1.5 -28t-1.5 -25.5t-0.5 -12.5q1 -3 1 -11q0 -9 -2.5 -23t-2.5 -24q0 -34 36 -34q18 0 28.5 16.5
t10.5 63.5q0 12 -2 15q3 17 3.5 37t1.5 26zM344 534q-11 9 -27 15.5t-33 6.5h-8q-18 3 -32.5 6.5t-31 6t-39 4.5t-56.5 2q-7 -2 -16 -12t-9 -25q0 -11 6 -21q35 -7 59.5 -7t46.5 -8h6q33 0 46.5 -7.5t13.5 -8.5q0 -8 -6 -22.5t-15 -29.5t-18.5 -28.5t-15.5 -19.5
q-10 -20 -21.5 -35.5t-28.5 -40.5q4 -12 9 -23.5t22 -11.5q9 0 21 3q7 10 22.5 26.5t19.5 29.5l13 20l16 24t9.5 16l6.5 13.5t6 15.5q7 9 13.5 21.5t12 25.5t8.5 24t3 19q0 10 -3 21zM504 -42q15 16 15 29q0 10 -8 18.5t-13 11.5q-36 -4 -57 -7t-45 -3q-10 0 -23 0.5
t-25.5 0.5t-23 0.5t-16.5 0.5q-7 21 -6.5 39t-1.5 49v18q0 11 -1 24t-3 23q-11 6 -19 9.5t-16 3.5q-6 0 -11.5 -2t-10 -9t-7 -20.5t-2.5 -36.5q0 -31 2.5 -51.5t6.5 -46.5q-1 -5 -1 -15q0 -29 15 -48q8 -3 19.5 -4.5t20.5 -1.5q11 0 14 2q11 -1 25 -2t28 -1q30 0 51 1.5
t37.5 3.5t29 5.5t26.5 8.5z" />
    <glyph glyph-name="uniAC77" unicode="&#xac77;" 
d="M676 381q1 7 1 17v24q0 29 -4 38q2 5 2 11.5v11.5v9.5v4t-0.5 9.5t-1.5 27q0 31 -4 43q1 3 1 11q0 6 -1 13.5t-3 17.5l-7 40q-8 14 -29 14q-16 0 -26 -6.5t-10 -20.5t3 -31.5t3 -38.5v-14q0 -9 3 -34t3 -50q-2 -1 -18.5 -2t-36 -2.5t-36 -3t-19.5 -1.5h-9q-8 0 -18.5 -1
t-23.5 -3l-57 -11q-15 -9 -15 -23t4 -21t10.5 -11t13.5 -4.5t13 -0.5q14 0 28 1t21 4q6 -2 11 -2q18 0 31.5 2t26 5t26.5 5t34 2q8 0 11 -0.5t3 -8.5q0 -6 -0.5 -20t-1.5 -28t-1.5 -25.5t-0.5 -12.5q1 -3 1 -11q0 -9 -2.5 -23t-2.5 -24q0 -34 36 -34q18 0 28.5 16.5
t10.5 63.5q0 12 -2 15q3 17 3.5 37t1.5 26zM344 534q-11 9 -27 15.5t-33 6.5h-8q-18 3 -32.5 6.5t-31 6t-39 4.5t-56.5 2q-7 -2 -16 -12t-9 -25q0 -11 6 -21q35 -7 59.5 -7t46.5 -8h6q33 0 46.5 -7.5t13.5 -8.5q0 -8 -6 -22.5t-15 -29.5t-18.5 -28.5t-15.5 -19.5
q-10 -20 -21.5 -35.5t-28.5 -40.5q4 -12 9 -23.5t22 -11.5q9 0 21 3q7 10 22.5 26.5t19.5 29.5l13 20l16 24t9.5 16l6.5 13.5t6 15.5q7 9 13.5 21.5t12 25.5t8.5 24t3 19q0 10 -3 21zM541 -173q17 17 17 29q0 10 -7.5 18.5t-12.5 12.5q-12 0 -27 -2l-23 -3q-19 3 -36 3
t-38 1l-48 4q-18 1 -26 3t-11 7.5t-2 17t1 31.5q0 41 4 53q-3 15 -3 28q0 17 3 30t5 24q27 4 45 5.5t40 2.5q11 3 23 4t22 3.5t16.5 9t6.5 21.5q0 38 -23 39q-11 -3 -30 -6.5t-38.5 -7.5t-37.5 -6.5t-28 -2.5h-26h-16t-12 -1l-13 -49q-3 -10 -3.5 -18.5t-1.5 -15.5
q0 -14 5 -22q0 -11 0.5 -20.5t0.5 -17.5q0 -9 -0.5 -16.5t-0.5 -14.5l-3 -64q-4 -11 -4 -21q0 -26 17.5 -40.5t42.5 -14.5q2 0 2.5 0.5t2.5 0.5q14 -2 33 -6t34 -4q6 0 14 2q11 -3 22 -4t23 -1q27 0 51 2.5t40 5.5z" />
    <glyph glyph-name="uniAC78" unicode="&#xac78;" 
d="M676 381q1 7 1 17v24q0 29 -4 38q2 5 2 11.5v11.5v9.5v4t-0.5 9.5t-1.5 27q0 31 -4 43q1 3 1 11q0 6 -1 13.5t-3 17.5l-7 40q-8 14 -29 14q-16 0 -26 -6.5t-10 -20.5t3 -31.5t3 -38.5v-14q0 -9 3 -34t3 -50q-2 -1 -18.5 -2t-36 -2.5t-36 -3t-19.5 -1.5h-9q-8 0 -18.5 -1
t-23.5 -3l-57 -11q-15 -9 -15 -23t4 -21t10.5 -11t13.5 -4.5t13 -0.5q14 0 28 1t21 4q6 -2 11 -2q18 0 31.5 2t26 5t26.5 5t34 2q8 0 11 -0.5t3 -8.5q0 -6 -0.5 -20t-1.5 -28t-1.5 -25.5t-0.5 -12.5q1 -3 1 -11q0 -9 -2.5 -23t-2.5 -24q0 -34 36 -34q18 0 28.5 16.5
t10.5 63.5q0 12 -2 15q3 17 3.5 37t1.5 26zM344 534q-11 9 -27 15.5t-33 6.5h-8q-18 3 -32.5 6.5t-31 6t-39 4.5t-56.5 2q-7 -2 -16 -12t-9 -25q0 -11 6 -21q35 -7 59.5 -7t46.5 -8h6q33 0 46.5 -7.5t13.5 -8.5q0 -8 -6 -22.5t-15 -29.5t-18.5 -28.5t-15.5 -19.5
q-10 -20 -21.5 -35.5t-28.5 -40.5q4 -12 9 -23.5t22 -11.5q9 0 21 3q7 10 22.5 26.5t19.5 29.5l13 20l16 24t9.5 16l6.5 13.5t6 15.5q7 9 13.5 21.5t12 25.5t8.5 24t3 19q0 10 -3 21zM582 -162q-6 3 -20 3q-20 0 -40 -3t-26 -3q-21 -3 -32.5 -4t-21.5 -1q-5 0 -9.5 0.5
t-9.5 0.5q-6 -3 -34 -3q-23 0 -46 0.5t-42 2.5q-22 1 -43 3q-1 3 -1 11q1 14 2 30t3 27l5 37q3 26 11 36q14 3 26.5 5t26 3.5t30.5 2.5t40 1h51q4 1 11.5 3.5t15.5 4.5t15 4t10 3q15 27 21 54t11 55q0 8 -4.5 26t-15.5 28q-21 5 -41.5 11t-28.5 6q-3 -1 -13 -1h-10t-12 1
l-42 4q-10 6 -30.5 6.5t-30.5 3.5q-9 -5 -13 -15t-4 -20q0 -15 12.5 -23t28.5 -11.5t30.5 -4t18.5 -0.5q2 -1 11 -3t25 -4l47 -7q0 -16 -5 -31.5t-11 -26.5q-7 -1 -17 -1h-24h-9q-10 0 -17 -1t-12 -3q-5 1 -16 1q-29 0 -51 -4.5t-50 -4.5h-8q-20 0 -32 -14t-12 -40
q0 -6 3 -9l-9 -73q-5 -45 -7.5 -59t-2.5 -12q0 -11 6 -21.5t14.5 -19t18.5 -13.5t18 -6q30 -2 59 -3.5t53 -2.5t39.5 -1h17.5q24 0 50.5 2.5t50.5 5.5t41.5 5.5t22.5 2.5q6 2 10.5 12t4.5 26q0 13 -8 21z" />
    <glyph glyph-name="uniAC7A" unicode="&#xac7a;" 
d="M676 381q1 7 1 17v24q0 29 -4 38q2 5 2 11.5v11.5v9.5v4t-0.5 9.5t-1.5 27q0 31 -4 43q1 3 1 11q0 6 -1 13.5t-3 17.5l-7 40q-8 14 -29 14q-16 0 -26 -6.5t-10 -20.5t3 -31.5t3 -38.5v-14q0 -9 3 -34t3 -50q-2 -1 -18.5 -2t-36 -2.5t-36 -3t-19.5 -1.5h-9q-8 0 -18.5 -1
t-23.5 -3l-57 -11q-15 -9 -15 -23t4 -21t10.5 -11t13.5 -4.5t13 -0.5q14 0 28 1t21 4q6 -2 11 -2q18 0 31.5 2t26 5t26.5 5t34 2q8 0 11 -0.5t3 -8.5q0 -6 -0.5 -20t-1.5 -28t-1.5 -25.5t-0.5 -12.5q1 -3 1 -11q0 -9 -2.5 -23t-2.5 -24q0 -34 36 -34q18 0 28.5 16.5
t10.5 63.5q0 12 -2 15q3 17 3.5 37t1.5 26zM344 534q-11 9 -27 15.5t-33 6.5h-8q-18 3 -32.5 6.5t-31 6t-39 4.5t-56.5 2q-7 -2 -16 -12t-9 -25q0 -11 6 -21q35 -7 59.5 -7t46.5 -8h6q33 0 46.5 -7.5t13.5 -8.5q0 -8 -6 -22.5t-15 -29.5t-18.5 -28.5t-15.5 -19.5
q-10 -20 -21.5 -35.5t-28.5 -40.5q4 -12 9 -23.5t22 -11.5q9 0 21 3q7 10 22.5 26.5t19.5 29.5l13 20l16 24t9.5 16l6.5 13.5t6 15.5q7 9 13.5 21.5t12 25.5t8.5 24t3 19q0 10 -3 21zM653 -34q-1 9 -1 14v6v40q3 12 3 24q0 25 -11 45q-12 3 -20 3.5t-16 0.5t-17 0.5t-22 2.5
q-15 3 -20.5 4t-8.5 1.5t-6.5 0.5h-13.5h-34h-13h-14t-11 -1q-4 -7 -11 -25t-7 -36q0 -13 -2 -30.5t-6 -26.5q0 -22 -3.5 -42t-3.5 -43v-15t6 -13t20.5 -9.5t43.5 -3.5h8t8 1q7 -2 14.5 -3t16.5 -1q17 0 49 4.5t64 14.5q3 8 5.5 30.5t2.5 47.5v9zM375 -208q9 3 9 22
q0 23 -12 37q-29 0 -49 -4l-40.5 -8.5t-47.5 -8.5t-70 -4q-5 0 -7 4.5t-3 11t-1 14v12.5q0 4 0.5 7.5t0.5 6.5l6 73q26 5 56.5 8.5t47.5 3.5h17q4 1 11.5 3.5t15.5 4.5t15 4t10 3q15 27 21 49t11 50q0 8 -4.5 26t-15.5 28q-21 5 -41.5 11t-28.5 6q-2 -1 -8 -1q-10 0 -23 2
t-26 3q-4 2 -15.5 3.5t-25 2.5t-25 2t-15.5 2q-9 -5 -13 -15t-4 -20q0 -16 14.5 -24t33.5 -11.5t37 -3.5h25l9.5 -2t21.5 -5t22 -6t10 -4q0 -14 -5.5 -24t-10.5 -21q-33 -2 -55 -5t-51 -3q-10 -5 -33 -5h-8q-43 0 -43 -51q0 -8 4 -12q0 -2 -1.5 -22t-3 -43.5t-2.5 -43.5
l-1 -20v-8q0 -9 2 -19.5t7 -21.5q23 -13 39 -13.5t31 -0.5h56.5t37.5 1.5t29 5t31 9.5q42 14 58 14zM589 -10q1 -5 1 -9.5v-8.5q0 -11 -1.5 -18.5l-3.5 -17.5q-9 -1 -14 -2t-9 -2t-8.5 -2t-12.5 -1q-2 0 -5 0.5t-6 0.5q-4 0 -7 -0.5t-6 -0.5q-8 0 -16 0.5t-20 1.5q1 10 2 25
t2.5 31.5t4 32.5t7.5 27q18 1 35 0q14 -1 28.5 -3t22.5 -6q1 -9 4 -18t3 -19q0 -7 -1 -11z" />
    <glyph glyph-name="uniAC80" unicode="&#xac80;" 
d="M676 381q1 7 1 17v24q0 29 -4 38q2 5 2 11.5v11.5v9.5v4t-0.5 9.5t-1.5 27q0 31 -4 43q1 3 1 11q0 6 -1 13.5t-3 17.5l-7 40q-8 14 -29 14q-16 0 -26 -6.5t-10 -20.5t3 -31.5t3 -38.5v-14q0 -9 3 -34t3 -50q-2 -1 -18.5 -2t-36 -2.5t-36 -3t-19.5 -1.5h-9q-8 0 -18.5 -1
t-23.5 -3l-57 -11q-15 -9 -15 -23t4 -21t10.5 -11t13.5 -4.5t13 -0.5q14 0 28 1t21 4q6 -2 11 -2q18 0 31.5 2t26 5t26.5 5t34 2q8 0 11 -0.5t3 -8.5q0 -6 -0.5 -20t-1.5 -28t-1.5 -25.5t-0.5 -12.5q1 -3 1 -11q0 -9 -2.5 -23t-2.5 -24q0 -34 36 -34q18 0 28.5 16.5
t10.5 63.5q0 12 -2 15q3 17 3.5 37t1.5 26zM344 534q-11 9 -27 15.5t-33 6.5h-8q-18 3 -32.5 6.5t-31 6t-39 4.5t-56.5 2q-7 -2 -16 -12t-9 -25q0 -11 6 -21q35 -7 59.5 -7t46.5 -8h6q33 0 46.5 -7.5t13.5 -8.5q0 -8 -6 -22.5t-15 -29.5t-18.5 -28.5t-15.5 -19.5
q-10 -20 -21.5 -35.5t-28.5 -40.5q4 -12 9 -23.5t22 -11.5q9 0 21 3q7 10 22.5 26.5t19.5 29.5l13 20l16 24t9.5 16l6.5 13.5t6 15.5q7 9 13.5 21.5t12 25.5t8.5 24t3 19q0 10 -3 21zM504 78v9q0 22 -2.5 36t-5.5 22q-22 8 -45 10t-40 4q-9 3 -19 4t-21 1q-12 0 -22.5 -1
t-17.5 -3q-4 1 -8 1h-8q-26 0 -40.5 -3t-21 -9t-8 -15t-1.5 -21q0 -17 2 -32t5 -30t5 -32.5t2 -40.5q0 -18 7 -35.5t11 -25.5q5 -1 11 -1.5t14 -0.5q3 0 6.5 0.5t7.5 0.5h35q6 0 11.5 -0.5t10.5 -0.5q4 0 13.5 1.5t20.5 3.5t22 3.5t19 1.5h10q13 0 29 4q7 11 9 27.5t2 30.5
v11q2 18 4 40t3 40zM437 88q1 -5 1.5 -8.5t0.5 -7.5q0 -9 -1.5 -18l-3.5 -20v-5q0 -13 -2 -22.5t-3 -20.5q-7 -4 -20 -5.5t-26.5 -2t-24 -0.5h-13.5h-9t-9 -1q-6 12 -8.5 28.5t-3.5 33.5t-2 31.5t-2 22.5q8 1 16 1.5t16 0.5t14.5 -0.5t12.5 -0.5h9q19 0 30 -2t28 -4z" />
    <glyph glyph-name="uniAC81" unicode="&#xac81;" 
d="M676 381q1 7 1 17v24q0 29 -4 38q2 5 2 11.5v11.5v9.5v4t-0.5 9.5t-1.5 27q0 31 -4 43q1 3 1 11q0 6 -1 13.5t-3 17.5l-7 40q-8 14 -29 14q-16 0 -26 -6.5t-10 -20.5t3 -31.5t3 -38.5v-14q0 -9 3 -34t3 -50q-2 -1 -18.5 -2t-36 -2.5t-36 -3t-19.5 -1.5h-9q-8 0 -18.5 -1
t-23.5 -3l-57 -11q-15 -9 -15 -23t4 -21t10.5 -11t13.5 -4.5t13 -0.5q14 0 28 1t21 4q6 -2 11 -2q18 0 31.5 2t26 5t26.5 5t34 2q8 0 11 -0.5t3 -8.5q0 -6 -0.5 -20t-1.5 -28t-1.5 -25.5t-0.5 -12.5q1 -3 1 -11q0 -9 -2.5 -23t-2.5 -24q0 -34 36 -34q18 0 28.5 16.5
t10.5 63.5q0 12 -2 15q3 17 3.5 37t1.5 26zM344 534q-11 9 -27 15.5t-33 6.5h-8q-18 3 -32.5 6.5t-31 6t-39 4.5t-56.5 2q-7 -2 -16 -12t-9 -25q0 -11 6 -21q35 -7 59.5 -7t46.5 -8h6q33 0 46.5 -7.5t13.5 -8.5q0 -8 -6 -22.5t-15 -29.5t-18.5 -28.5t-15.5 -19.5
q-10 -20 -21.5 -35.5t-28.5 -40.5q4 -12 9 -23.5t22 -11.5q9 0 21 3q7 10 22.5 26.5t19.5 29.5l13 20l16 24t9.5 16l6.5 13.5t6 15.5q7 9 13.5 21.5t12 25.5t8.5 24t3 19q0 10 -3 21zM558 -4q0 -1 -1.5 15t-3 35.5t-3 35.5t-1.5 15q1 3 1 9q0 32 -10.5 52t-28.5 20
q-10 0 -18.5 -7.5t-11.5 -13.5q0 -17 1.5 -28.5l3.5 -26t3.5 -34t1.5 -50.5l-45 -3q-16 -2 -26 -3t-14 -3h-11q-9 0 -21.5 -1.5l-24.5 -3t-21.5 -3t-10.5 -1.5q-2 0 -4 0.5t-5 0.5q-5 0 -13.5 -0.5t-17 -1.5t-15 -2t-8.5 -1q-1 5 -1 35v14q0 14 -2 22q0 3 0.5 11.5t1.5 18.5
t1.5 19t0.5 14q0 14 -9 20.5t-15 6.5q-29 0 -36 -26t-7 -86q0 -39 4 -51q-1 -5 -1 -11v-14q0 -11 0.5 -26t0.5 -27v-18t-1 -12q0 -10 3 -53l4 -60q-1 0 16 -1t39 -2.5t42.5 -3.5t26.5 -2q5 -1 12 -1h17t22 0.5t26 0.5h79q10 -3 19 -3q23 0 39 13.5t16 34.5q0 3 -2 7
q2 12 4.5 28.5t2.5 31.5q0 12 -3 21q2 9 2.5 19t0.5 21v38v11t1 10zM492 -45q0 -29 -0.5 -48t-2 -33.5t-3 -25t-3.5 -21.5q-10 -2 -40 -2q-41 0 -69 1t-38 4q-5 -1 -18 -1q-15 0 -31.5 1.5l-27.5 2.5q0 6 -1 17t-1 19v5q0 4 -0.5 12.5t-1 18t-0.5 17.5v13l113 10q7 4 57 7z
" />
    <glyph glyph-name="uniAC83" unicode="&#xac83;" 
d="M676 381q1 7 1 17v24q0 29 -4 38q2 5 2 11.5v11.5v9.5v4t-0.5 9.5t-1.5 27q0 31 -4 43q1 3 1 11q0 6 -1 13.5t-3 17.5l-7 40q-8 14 -29 14q-16 0 -26 -6.5t-10 -20.5t3 -31.5t3 -38.5v-14q0 -9 3 -34t3 -50q-2 -1 -18.5 -2t-36 -2.5t-36 -3t-19.5 -1.5h-9q-8 0 -18.5 -1
t-23.5 -3l-57 -11q-15 -9 -15 -23t4 -21t10.5 -11t13.5 -4.5t13 -0.5q14 0 28 1t21 4q6 -2 11 -2q18 0 31.5 2t26 5t26.5 5t34 2q8 0 11 -0.5t3 -8.5q0 -6 -0.5 -20t-1.5 -28t-1.5 -25.5t-0.5 -12.5q1 -3 1 -11q0 -9 -2.5 -23t-2.5 -24q0 -34 36 -34q18 0 28.5 16.5
t10.5 63.5q0 12 -2 15q3 17 3.5 37t1.5 26zM344 534q-11 9 -27 15.5t-33 6.5h-8q-18 3 -32.5 6.5t-31 6t-39 4.5t-56.5 2q-7 -2 -16 -12t-9 -25q0 -11 6 -21q35 -7 59.5 -7t46.5 -8h6q33 0 46.5 -7.5t13.5 -8.5q0 -8 -6 -22.5t-15 -29.5t-18.5 -28.5t-15.5 -19.5
q-10 -20 -21.5 -35.5t-28.5 -40.5q4 -12 9 -23.5t22 -11.5q9 0 21 3q7 10 22.5 26.5t19.5 29.5l13 20l16 24t9.5 16l6.5 13.5t6 15.5q7 9 13.5 21.5t12 25.5t8.5 24t3 19q0 10 -3 21zM543 -21q-9 19 -18.5 28t-19 15.5l-20.5 13.5t-24 24q-14 10 -27 17.5t-22 17.5
q5 6 15.5 17t11.5 24q-10 31 -43 31q-9 0 -13 -4l-28 -32q-15 -18 -21.5 -24.5l-9.5 -9.5t-6.5 -6t-12.5 -15l-19 -25q-7 -9 -17.5 -20l-21.5 -23.5t-19.5 -26t-11.5 -27.5q0 -2 3.5 -7t9 -10t12.5 -9t14 -4q9 0 17.5 9.5t17.5 22.5t19 26t23 20q1 2 6 9t11 14.5t12 14
t9 8.5l19 -18q13 -12 21 -15q19 -15 33.5 -29l26.5 -25.5t22 -19t21 -9.5q1 0 6 4t11 10t10.5 12.5t4.5 12.5q0 2 -2 8z" />
    <glyph glyph-name="uniAC84" unicode="&#xac84;" 
d="M373 10q-1 3 -3.5 4t-7 3.5t-10.5 8t-14 16.5q-15 10 -26.5 22.5t-19.5 15.5q1 2 6.5 7t11.5 12t11 14t5 13q0 11 -7.5 24.5t-24.5 13.5q-14 0 -28 -11.5t-27.5 -26.5l-26.5 -30t-23 -21l-43 -49q-10 -13 -26 -30t-21 -34q0 -6 11 -19t26 -13q5 0 17.5 10.5t28 26
l33 33.5l33.5 34q15 -10 31 -24t29 -27l21 -21.5t8 -7.5q-6 -9 -12 -20.5l-12 -23t-10 -22t-5 -17.5q1 -4 12.5 -14.5t24.5 -10.5q14 0 28 22.5t38 68.5q8 13 14.5 22l12 16.5l11 15.5l13.5 20q3 -2 6.5 -7t8 -10.5t9 -10t7.5 -5.5q16 -10 24.5 -21.5t17.5 -18.5
q4 -3 10 -10.5l12.5 -15t14 -14t13.5 -7.5l25 11q15 6 15 19q0 10 -6.5 20.5t-14.5 19.5t-17 16l-13 10q-4 6 -14 16l-22 21l-23 21.5l-18 17.5l21 36q17 28 17 40q-6 14 -16 19t-25 5h-14.5t-8 -8l-15 -28t-34.5 -60q-3 -2 -8.5 -9.5t-11 -16.5l-11 -18t-8.5 -13zM344 534
q-11 9 -27 15.5t-33 6.5h-8q-18 3 -32.5 6.5t-31 6t-39 4.5t-56.5 2q-7 -2 -16 -12t-9 -25q0 -11 6 -21q35 -7 59.5 -7t46.5 -8h6q33 0 46.5 -7.5t13.5 -8.5q0 -8 -6 -22.5t-15 -29.5t-18.5 -28.5t-15.5 -19.5q-10 -20 -21.5 -35.5t-28.5 -40.5q4 -12 9 -23.5t22 -11.5
q9 0 21 3q7 10 22.5 26.5t19.5 29.5l13 20l16 24t9.5 16l6.5 13.5t6 15.5q7 9 13.5 21.5t12 25.5t8.5 24t3 19q0 10 -3 21zM676 381q1 7 1 17v24q0 29 -4 38q2 5 2 11.5v11.5v9.5v4t-0.5 9.5t-1.5 27q0 31 -4 43q1 3 1 11q0 6 -1 13.5t-3 17.5l-7 40q-8 14 -29 14
q-16 0 -26 -6.5t-10 -20.5t3 -31.5t3 -38.5v-14q0 -9 3 -34t3 -50q-2 -1 -18.5 -2t-36 -2.5t-36 -3t-19.5 -1.5h-9q-8 0 -18.5 -1t-23.5 -3l-57 -11q-15 -9 -15 -23t4 -21t10.5 -11t13.5 -4.5t13 -0.5q14 0 28 1t21 4q6 -2 11 -2q18 0 31.5 2t26 5t26.5 5t34 2q8 0 11 -0.5
t3 -8.5q0 -6 -0.5 -20t-1.5 -28t-1.5 -25.5t-0.5 -12.5q1 -3 1 -11q0 -9 -2.5 -23t-2.5 -24q0 -34 36 -34q18 0 28.5 16.5t10.5 63.5q0 12 -2 15q3 17 3.5 37t1.5 26z" />
    <glyph glyph-name="uniAC85" unicode="&#xac85;" 
d="M676 381q1 7 1 17v24q0 29 -4 38q2 5 2 11.5v11.5v9.5v4t-0.5 9.5t-1.5 27q0 31 -4 43q1 3 1 11q0 6 -1 13.5t-3 17.5l-7 40q-8 14 -29 14q-16 0 -26 -6.5t-10 -20.5t3 -31.5t3 -38.5v-14q0 -9 3 -34t3 -50q-2 -1 -18.5 -2t-36 -2.5t-36 -3t-19.5 -1.5h-9q-8 0 -18.5 -1
t-23.5 -3l-57 -11q-15 -9 -15 -23t4 -21t10.5 -11t13.5 -4.5t13 -0.5q14 0 28 1t21 4q6 -2 11 -2q18 0 31.5 2t26 5t26.5 5t34 2q8 0 11 -0.5t3 -8.5q0 -6 -0.5 -20t-1.5 -28t-1.5 -25.5t-0.5 -12.5q1 -3 1 -11q0 -9 -2.5 -23t-2.5 -24q0 -34 36 -34q18 0 28.5 16.5
t10.5 63.5q0 12 -2 15q3 17 3.5 37t1.5 26zM344 534q-11 9 -27 15.5t-33 6.5h-8q-18 3 -32.5 6.5t-31 6t-39 4.5t-56.5 2q-7 -2 -16 -12t-9 -25q0 -11 6 -21q35 -7 59.5 -7t46.5 -8h6q33 0 46.5 -7.5t13.5 -8.5q0 -8 -6 -22.5t-15 -29.5t-18.5 -28.5t-15.5 -19.5
q-10 -20 -21.5 -35.5t-28.5 -40.5q4 -12 9 -23.5t22 -11.5q9 0 21 3q7 10 22.5 26.5t19.5 29.5l13 20l16 24t9.5 16l6.5 13.5t6 15.5q7 9 13.5 21.5t12 25.5t8.5 24t3 19q0 10 -3 21zM490 21q0 2 0.5 5t0.5 7q0 11 -2.5 29t-2.5 25q0 2 0.5 3t0.5 2q-10 14 -15 23.5
t-11.5 16.5t-17.5 12.5t-33 11.5l-19.5 5.5t-13.5 1.5h-2.5t-3.5 -0.5t-10 -1l-20 -1.5q-14 -1 -20 -1.5t-9 -3t-7 -8t-15 -16.5q-13 -13 -20 -22.5t-10 -17.5t-3.5 -16t-0.5 -18q0 -13 0.5 -24.5t4 -23.5t11.5 -25t24 -29q20 -20 32 -25.5t28 -5.5q20 0 43 6t47 14
q6 7 13.5 18.5l14.5 23t11.5 21t4.5 14.5zM422 67v-8q0 -24 -3 -37.5t-10 -20.5t-19 -8.5t-29 -2.5q-20 7 -28.5 25.5t-9.5 38.5q1 15 8 24.5t15.5 14t16.5 6t11 1.5q10 0 19 -5t15 -11t10 -11t4 -6z" />
    <glyph glyph-name="uniAC86" unicode="&#xac86;" 
d="M676 381q1 7 1 17v24q0 29 -4 38q2 5 2 11.5v11.5v9.5v4t-0.5 9.5t-1.5 27q0 31 -4 43q1 3 1 11q0 6 -1 13.5t-3 17.5l-7 40q-8 14 -29 14q-16 0 -26 -6.5t-10 -20.5t3 -31.5t3 -38.5v-14q0 -9 3 -34t3 -50q-2 -1 -18.5 -2t-36 -2.5t-36 -3t-19.5 -1.5h-9q-8 0 -18.5 -1
t-23.5 -3l-57 -11q-15 -9 -15 -23t4 -21t10.5 -11t13.5 -4.5t13 -0.5q14 0 28 1t21 4q6 -2 11 -2q18 0 31.5 2t26 5t26.5 5t34 2q8 0 11 -0.5t3 -8.5q0 -6 -0.5 -20t-1.5 -28t-1.5 -25.5t-0.5 -12.5q1 -3 1 -11q0 -9 -2.5 -23t-2.5 -24q0 -34 36 -34q18 0 28.5 16.5
t10.5 63.5q0 12 -2 15q3 17 3.5 37t1.5 26zM344 534q-11 9 -27 15.5t-33 6.5h-8q-18 3 -32.5 6.5t-31 6t-39 4.5t-56.5 2q-7 -2 -16 -12t-9 -25q0 -11 6 -21q35 -7 59.5 -7t46.5 -8h6q33 0 46.5 -7.5t13.5 -8.5q0 -8 -6 -22.5t-15 -29.5t-18.5 -28.5t-15.5 -19.5
q-10 -20 -21.5 -35.5t-28.5 -40.5q4 -12 9 -23.5t22 -11.5q9 0 21 3q7 10 22.5 26.5t19.5 29.5l13 20l16 24t9.5 16l6.5 13.5t6 15.5q7 9 13.5 21.5t12 25.5t8.5 24t3 19q0 10 -3 21zM541 -125q-8 17 -15 24t-14 12.5t-15 12.5t-18 24q-14 10 -28.5 22.5t-23.5 22.5
q7 9 15.5 23.5t16 29.5t12.5 28.5t5 19.5q0 23 -20 33.5t-43 10.5h-8q-18 3 -32.5 6.5t-31 6t-39 4.5t-56.5 2q-7 -2 -16 -12t-9 -25q0 -11 6 -21q35 -7 59.5 -7t46.5 -8h6q7 0 17 -2t19 -4t14.5 -3.5t4.5 -1.5q-3 -4 -13 -19l-21 -32t-21 -31t-13 -17l-28 -45
q-38 -60 -61.5 -90t-24.5 -49q1 -4 13.5 -15.5t26.5 -11.5q4 0 7.5 0.5t7 3.5t8.5 9.5l14 17.5l28 36q1 5 6 14.5t12 19l13.5 18t9.5 10.5q0 2 4.5 9l9.5 15t10.5 15t7.5 10q24 -27 36 -32q9 -7 20 -24t21 -23l23.5 -21t24.5 -12l4.5 4t10 9.5t9.5 12t4 12.5q0 2 -2 8z" />
    <glyph glyph-name="uniAC89" unicode="&#xac89;" 
d="M318 15q1 23 3.5 44.5t4.5 30.5q47 7 84 10.5l77 7.5q12 6 12 28q0 38 -23 39l-42 -5q-9 -1 -16 -1.5t-13 -0.5q-11 0 -19 2q-6 -2 -8.5 -3.5t-6.5 -2.5t-11.5 -1.5t-23.5 -0.5q-13 -6 -33 -7.5t-34 -9.5q0 -1 -2.5 -11t-5.5 -24t-5.5 -30t-2.5 -29q0 -20 3 -31.5
t3 -28.5q0 -44 -3.5 -89t-3.5 -76q0 -23 14 -38t35 -15q4 0 6 1q13 -1 24.5 -3.5t22.5 -2.5q4 0 7 0.5t7 1.5q35 -7 61 -7q28 0 51 8t44 10q15 16 15 29q0 10 -8 18.5t-13 11.5q-12 0 -27 -3t-23 -4q-4 1 -8 1h-9q-11 0 -23.5 -1t-25.5 -1q-23 0 -43 3.5t-34 3.5h-7
q-2 8 -2 47q0 20 0.5 36t1.5 29q10 0 20 0.5t18 0.5q7 0 12 -0.5t10 -1.5q7 2 20 3.5t27.5 3t29 3.5t24.5 5q2 5 6.5 15t4.5 21q0 15 -13 18t-34 3t-37.5 -2t-26.5 -4q-13 -1 -28.5 -1h-32.5zM344 534q-11 9 -27 15.5t-33 6.5h-8q-18 3 -32.5 6.5t-31 6t-39 4.5t-56.5 2
q-7 -2 -16 -12t-9 -25q0 -11 6 -21q35 -7 59.5 -7t46.5 -8h6q33 0 46.5 -7.5t13.5 -8.5q0 -8 -6 -22.5t-15 -29.5t-18.5 -28.5t-15.5 -19.5q-10 -20 -21.5 -35.5t-28.5 -40.5q4 -12 9 -23.5t22 -11.5q9 0 21 3q7 10 22.5 26.5t19.5 29.5l13 20l16 24t9.5 16l6.5 13.5t6 15.5
q7 9 13.5 21.5t12 25.5t8.5 24t3 19q0 10 -3 21zM676 381q1 7 1 17v24q0 29 -4 38q2 5 2 11.5v11.5v9.5v4t-0.5 9.5t-1.5 27q0 31 -4 43q1 3 1 11q0 6 -1 13.5t-3 17.5l-7 40q-8 14 -29 14q-16 0 -26 -6.5t-10 -20.5t3 -31.5t3 -38.5v-14q0 -9 3 -34t3 -50q-2 -1 -18.5 -2
t-36 -2.5t-36 -3t-19.5 -1.5h-9q-8 0 -18.5 -1t-23.5 -3l-57 -11q-15 -9 -15 -23t4 -21t10.5 -11t13.5 -4.5t13 -0.5q14 0 28 1t21 4q6 -2 11 -2q18 0 31.5 2t26 5t26.5 5t34 2q8 0 11 -0.5t3 -8.5q0 -6 -0.5 -20t-1.5 -28t-1.5 -25.5t-0.5 -12.5q1 -3 1 -11q0 -9 -2.5 -23
t-2.5 -24q0 -34 36 -34q18 0 28.5 16.5t10.5 63.5q0 12 -2 15q3 17 3.5 37t1.5 26z" />
    <glyph glyph-name="uniAC8A" unicode="&#xac8a;" 
d="M676 381q1 7 1 17v24q0 29 -4 38q2 5 2 11.5v11.5v9.5v4t-0.5 9.5t-1.5 27q0 31 -4 43q1 3 1 11q0 6 -1 13.5t-3 17.5l-7 40q-8 14 -29 14q-16 0 -26 -6.5t-10 -20.5t3 -31.5t3 -38.5v-14q0 -9 3 -34t3 -50q-2 -1 -18.5 -2t-36 -2.5t-36 -3t-19.5 -1.5h-9q-8 0 -18.5 -1
t-23.5 -3l-57 -11q-15 -9 -15 -23t4 -21t10.5 -11t13.5 -4.5t13 -0.5q14 0 28 1t21 4q6 -2 11 -2q18 0 31.5 2t26 5t26.5 5t34 2q8 0 11 -0.5t3 -8.5q0 -6 -0.5 -20t-1.5 -28t-1.5 -25.5t-0.5 -12.5q1 -3 1 -11q0 -9 -2.5 -23t-2.5 -24q0 -34 36 -34q18 0 28.5 16.5
t10.5 63.5q0 12 -2 15q3 17 3.5 37t1.5 26zM344 534q-11 9 -27 15.5t-33 6.5h-8q-18 3 -32.5 6.5t-31 6t-39 4.5t-56.5 2q-7 -2 -16 -12t-9 -25q0 -11 6 -21q35 -7 59.5 -7t46.5 -8h6q33 0 46.5 -7.5t13.5 -8.5q0 -8 -6 -22.5t-15 -29.5t-18.5 -28.5t-15.5 -19.5
q-10 -20 -21.5 -35.5t-28.5 -40.5q4 -12 9 -23.5t22 -11.5q9 0 21 3q7 10 22.5 26.5t19.5 29.5l13 20l16 24t9.5 16l6.5 13.5t6 15.5q7 9 13.5 21.5t12 25.5t8.5 24t3 19q0 10 -3 21zM550 -74q-22 5 -40.5 8t-35.5 5q1 5 3.5 22t5 39t4 44t1.5 37q0 14 -2 20q9 1 20 3
t21 5.5t16.5 9.5t6.5 14q0 26 -14 31t-30 5q-30 1 -53 -2t-42 -7t-36 -7t-35 -3h-38q-26 0 -35 -4q-3 1 -6 1.5t-8 0.5q-12 0 -25 -1t-24.5 -5.5t-19 -13.5t-7.5 -25q0 -10 5.5 -15.5t13.5 -8t16 -3t14 -0.5q10 0 18 0.5t17 1.5q0 -6 1.5 -24.5l3.5 -41.5t5.5 -46.5
t6.5 -38.5l-39 -7q-19 -5 -30.5 -7.5t-17.5 -5.5t-8 -7t-2 -11q0 -20 11.5 -27.5t15.5 -7.5q9 0 24.5 1.5t31.5 3.5t28.5 4t14.5 3q3 -1 10 -1q12 0 27.5 3.5t24.5 3.5q17 0 33.5 1.5t39.5 1.5q16 0 34 -3t49 -3q14 0 26.5 5t12.5 31q0 12 -14 21zM421 94q1 -5 1 -9v-9
q0 -38 -3 -67.5t-8 -69.5q-19 -4 -37.5 -3.5t-29.5 -1.5q-5 8 -7 24.5t-3.5 37.5t-2.5 43.5t-4 42.5q16 3 32 5l29 3.5l22 2.5t11 1z" />
    <glyph glyph-name="uniAC8B" unicode="&#xac8b;" 
d="M676 381q1 7 1 17v24q0 29 -4 38q2 5 2 11.5v11.5v9.5v4t-0.5 9.5t-1.5 27q0 31 -4 43q1 3 1 11q0 6 -1 13.5t-3 17.5l-7 40q-8 14 -29 14q-16 0 -26 -6.5t-10 -20.5t3 -31.5t3 -38.5v-14q0 -9 3 -34t3 -50q-2 -1 -18.5 -2t-36 -2.5t-36 -3t-19.5 -1.5h-9q-8 0 -18.5 -1
t-23.5 -3l-57 -11q-15 -9 -15 -23t4 -21t10.5 -11t13.5 -4.5t13 -0.5q14 0 28 1t21 4q6 -2 11 -2q18 0 31.5 2t26 5t26.5 5t34 2q8 0 11 -0.5t3 -8.5q0 -6 -0.5 -20t-1.5 -28t-1.5 -25.5t-0.5 -12.5q1 -3 1 -11q0 -9 -2.5 -23t-2.5 -24q0 -34 36 -34q18 0 28.5 16.5
t10.5 63.5q0 12 -2 15q3 17 3.5 37t1.5 26zM344 534q-11 9 -27 15.5t-33 6.5h-8q-18 3 -32.5 6.5t-31 6t-39 4.5t-56.5 2q-7 -2 -16 -12t-9 -25q0 -11 6 -21q35 -7 59.5 -7t46.5 -8h6q33 0 46.5 -7.5t13.5 -8.5q0 -8 -6 -22.5t-15 -29.5t-18.5 -28.5t-15.5 -19.5
q-10 -20 -21.5 -35.5t-28.5 -40.5q4 -12 9 -23.5t22 -11.5q9 0 21 3q7 10 22.5 26.5t19.5 29.5l13 20l16 24t9.5 16l6.5 13.5t6 15.5q7 9 13.5 21.5t12 25.5t8.5 24t3 19q0 10 -3 21zM466 106q-2 7 -12.5 18t-24 22t-26.5 20.5t-20 13.5q-15 9 -22.5 13t-11 5.5t-5.5 1
t-6 -0.5q-14 0 -21.5 -13t-7.5 -27q0 -11 6 -17t15 -11l18.5 -10t16.5 -15l36 -23q14 -9 22.5 -14t10.5 -10q13 7 23 18t10 22q0 5 -1 7zM520 18q-5 4 -16.5 8t-25 7t-27 5t-22.5 2h-9l-38 7.5t-37 5.5q-5 1 -16 2.5t-25 3t-28 2.5t-23 1q-37 0 -52 -6.5t-15 -33.5
q0 -11 6 -21l44 -7q27 -3 43.5 -3h28t20.5 -0.5t20 -4.5h4q6 0 19.5 -2.5l31 -5.5t36.5 -5.5t34 -2.5q22 0 35 7.5t13 33.5q0 2 -0.5 3.5t-0.5 3.5zM466 -140q-4 6 -6.5 21.5t-7.5 24.5q0 4 -6.5 10t-15 12.5t-18.5 13l-18 11.5q-23 -1 -42.5 -2t-35 -8.5t-28.5 -24.5
t-22 -50q3 -18 4.5 -32.5t8.5 -26.5t21.5 -23t42.5 -22q1 -3 8 -3q4 0 11 1.5t14.5 4t13 4l5.5 1.5h1q4 1 11.5 5.5t15.5 10.5t15.5 12.5t11.5 11.5q9 11 9.5 20t6.5 28zM398 -138q0 -2 -2 -8t-6 -12t-11 -11t-17 -5q-11 0 -20.5 6.5t-9.5 21.5q0 4 2 14.5t10 18.5
q11 3 18 4.5t13 1.5q3 0 7 -4t7.5 -9.5t6 -10.5t2.5 -7z" />
    <glyph glyph-name="uniAC8C" unicode="&#xac8c;" 
d="M725 272v34v13q0 15 -2 25q2 5 3 14t1 20q0 18 -2 38.5t-4 38.5q2 6 2 17v14t-2 19l-6 48q-8 23 -26 23q-23 0 -33 -14t-10 -25q0 -6 1 -15t2.5 -19t2.5 -19.5t1 -14.5q0 -8 -1 -11q0 -2 1 -12.5t1.5 -24.5t1.5 -27.5t1 -20.5v-10q0 -3 0.5 -7.5t0.5 -10.5q0 -9 -1 -24
t-1.5 -31.5t-1.5 -30.5t-1 -20q0 -8 0.5 -12t0.5 -11q0 -11 -1.5 -26l-3 -30t-3 -28.5t-1.5 -21.5q0 -29 35 -29q20 0 29 15l7 44q2 11 3 20.5t1 16.5q0 8 -1 11q2 5 2.5 18t1.5 28zM576 261q1 7 1 17v24q0 29 -4 38q2 5 2 11.5v11.5v9.5v4t-0.5 9.5t-1.5 27q0 15 -1 48
t-5 66.5t-12.5 58.5t-23.5 25q-16 0 -27 -13t-13 -22q0 -1 1.5 -14.5t3.5 -29.5t4 -30t3 -16q0 -1 0.5 -14t1 -30.5l1 -36.5t0.5 -31q0 -11 -4 -15.5t-12.5 -6t-22.5 -1.5t-33 -3h-8q-9 0 -24.5 -2t-31 -6.5t-26.5 -12t-11 -17.5q0 -12 4 -19.5t9.5 -11.5t11.5 -5t11 -1
q30 0 49 2.5t33 5.5l26 5.5t29 2.5v-9q0 -51 -1.5 -84.5t-3 -54t-3 -30t-1.5 -12.5q0 -36 37 -36q10 0 17 3.5t12 14t7.5 29.5t2.5 50q0 15 -2 18q1 7 2 20t1.5 26.5t1 24t0.5 12.5zM314 414q-11 9 -27 15.5t-33 6.5h-8q-18 3 -32.5 6.5t-31 6t-39 4.5t-56.5 2
q-7 -2 -16 -12t-9 -25q0 -11 6 -21q35 -7 59.5 -7t46.5 -8h6q33 0 46.5 -7.5t13.5 -8.5q0 -8 -6 -22.5t-15 -29.5t-18.5 -28.5t-15.5 -19.5q-10 -20 -21.5 -35.5t-28.5 -40.5q4 -12 9 -23.5t22 -11.5q9 0 21 3q7 10 22.5 26.5t19.5 29.5l13 20l16 24t9.5 16l6.5 13.5t6 15.5
q7 9 13.5 21.5t12 25.5t8.5 24t3 19q0 10 -3 21z" />
    <glyph glyph-name="uniAC90" unicode="&#xac90;" 
d="M725 412v24v15t-2 13q2 5 3 14t1 20q0 18 -2 38.5t-4 38.5q2 6 2 17v14t-2 19l-6 48q-8 23 -26 23q-23 0 -33 -14t-10 -25q0 -6 1 -15t2.5 -19t2.5 -19.5t1 -14.5q0 -8 -1 -11q0 -2 1 -12.5t1.5 -24.5t1.5 -27.5t1 -20.5v-10q0 -3 0.5 -7t0.5 -9q0 -8 -1 -20.5t-1.5 -26
t-1.5 -25t-1 -16.5q0 -7 0.5 -11t0.5 -9q0 -25 -5 -49.5t-5 -41.5q0 -14 11 -20.5t25 -6.5q20 0 29 15l7 44q2 11 3 20.5t1 16.5q0 8 -1 11q2 6 3 16.5t1.5 21t1 18.5zM576 381q1 7 1 17v24q0 29 -4 38q2 5 2 11.5v11.5v9.5v4t-0.5 9.5t-1.5 27q0 15 -1 48t-5 66.5
t-12.5 58.5t-23.5 25q-16 0 -27 -13t-13 -22q0 -1 1.5 -14.5t3.5 -29.5t4 -30t3 -16q0 -1 0.5 -14t1 -30.5l1 -36.5t0.5 -31q0 -11 -4 -15.5t-12.5 -6t-22.5 -1.5t-33 -3h-8q-9 0 -24.5 -2t-31 -6.5t-26.5 -12t-11 -17.5q0 -12 4 -19.5t9.5 -11.5t11.5 -5t11 -1q30 0 49 2.5
t33 5.5l26 5.5t29 2.5v-8q0 -29 -1.5 -50.5t-3 -38t-3 -29t-1.5 -24.5q0 -36 37 -36q18 0 28.5 16.5t10.5 63.5q0 12 -2 15q3 17 3.5 37t1.5 26zM314 534q-11 9 -27 15.5t-33 6.5h-8q-18 3 -32.5 6.5t-31 6t-39 4.5t-56.5 2q-7 -2 -16 -12t-9 -25q0 -11 6 -21q35 -7 59.5 -7
t46.5 -8h6q33 0 46.5 -7.5t13.5 -8.5q0 -8 -6 -22.5t-15 -29.5t-18.5 -28.5t-15.5 -19.5q-10 -20 -21.5 -35.5t-28.5 -40.5q4 -12 9 -23.5t22 -11.5q9 0 21 3q7 10 22.5 26.5t19.5 29.5l13 20l16 24t9.5 16l6.5 13.5t6 15.5q7 9 13.5 21.5t12 25.5t8.5 24t3 19q0 10 -3 21z
M504 -42q15 16 15 29q0 10 -8 18.5t-13 11.5q-36 -4 -57 -7t-45 -3q-10 0 -23 0.5t-25.5 0.5t-23 0.5t-16.5 0.5q-7 21 -6.5 39t-1.5 49v18q0 11 -1 24t-3 23q-11 6 -19 9.5t-16 3.5q-6 0 -11.5 -2t-10 -9t-7 -20.5t-2.5 -36.5q0 -31 2.5 -51.5t6.5 -46.5q-1 -5 -1 -15
q0 -29 15 -48q8 -3 19.5 -4.5t20.5 -1.5q11 0 14 2q11 -1 25 -2t28 -1q30 0 51 1.5t37.5 3.5t29 5.5t26.5 8.5z" />
    <glyph glyph-name="uniAC94" unicode="&#xac94;" 
d="M725 412v24v15t-2 13q2 5 3 14t1 20q0 18 -2 38.5t-4 38.5q2 6 2 17v14t-2 19l-6 48q-8 23 -26 23q-23 0 -33 -14t-10 -25q0 -6 1 -15t2.5 -19t2.5 -19.5t1 -14.5q0 -8 -1 -11q0 -2 1 -12.5t1.5 -24.5t1.5 -27.5t1 -20.5v-10q0 -3 0.5 -7t0.5 -9q0 -8 -1 -20.5t-1.5 -26
t-1.5 -25t-1 -16.5q0 -7 0.5 -11t0.5 -9q0 -25 -5 -49.5t-5 -41.5q0 -14 11 -20.5t25 -6.5q20 0 29 15l7 44q2 11 3 20.5t1 16.5q0 8 -1 11q2 6 3 16.5t1.5 21t1 18.5zM576 381q1 7 1 17v24q0 29 -4 38q2 5 2 11.5v11.5v9.5v4t-0.5 9.5t-1.5 27q0 15 -1 48t-5 66.5
t-12.5 58.5t-23.5 25q-16 0 -27 -13t-13 -22q0 -1 1.5 -14.5t3.5 -29.5t4 -30t3 -16q0 -1 0.5 -14t1 -30.5l1 -36.5t0.5 -31q0 -11 -4 -15.5t-12.5 -6t-22.5 -1.5t-33 -3h-8q-9 0 -24.5 -2t-31 -6.5t-26.5 -12t-11 -17.5q0 -12 4 -19.5t9.5 -11.5t11.5 -5t11 -1q30 0 49 2.5
t33 5.5l26 5.5t29 2.5v-8q0 -29 -1.5 -50.5t-3 -38t-3 -29t-1.5 -24.5q0 -36 37 -36q18 0 28.5 16.5t10.5 63.5q0 12 -2 15q3 17 3.5 37t1.5 26zM314 534q-11 9 -27 15.5t-33 6.5h-8q-18 3 -32.5 6.5t-31 6t-39 4.5t-56.5 2q-7 -2 -16 -12t-9 -25q0 -11 6 -21q35 -7 59.5 -7
t46.5 -8h6q33 0 46.5 -7.5t13.5 -8.5q0 -8 -6 -22.5t-15 -29.5t-18.5 -28.5t-15.5 -19.5q-10 -20 -21.5 -35.5t-28.5 -40.5q4 -12 9 -23.5t22 -11.5q9 0 21 3q7 10 22.5 26.5t19.5 29.5l13 20l16 24t9.5 16l6.5 13.5t6 15.5q7 9 13.5 21.5t12 25.5t8.5 24t3 19q0 10 -3 21z
M582 -162q-6 3 -20 3q-20 0 -40 -3t-26 -3q-21 -3 -32.5 -4t-21.5 -1q-5 0 -9.5 0.5t-9.5 0.5q-6 -3 -34 -3q-23 0 -46 0.5t-42 2.5q-22 1 -43 3q-1 3 -1 11q1 14 2 30t3 27l5 37q3 26 11 36q14 3 26.5 5t26 3.5t30.5 2.5t40 1h51q4 1 11.5 3.5t15.5 4.5t15 4t10 3
q15 27 21 54t11 55q0 8 -4.5 26t-15.5 28q-21 5 -41.5 11t-28.5 6q-3 -1 -13 -1h-10t-12 1l-42 4q-10 6 -30.5 6.5t-30.5 3.5q-9 -5 -13 -15t-4 -20q0 -15 12.5 -23t28.5 -11.5t30.5 -4t18.5 -0.5q2 -1 11 -3t25 -4l47 -7q0 -16 -5 -31.5t-11 -26.5q-7 -1 -17 -1h-24h-9
q-10 0 -17 -1t-12 -3q-5 1 -16 1q-29 0 -51 -4.5t-50 -4.5h-8q-20 0 -32 -14t-12 -40q0 -6 3 -9l-9 -73q-5 -45 -7.5 -59t-2.5 -12q0 -11 6 -21.5t14.5 -19t18.5 -13.5t18 -6q30 -2 59 -3.5t53 -2.5t39.5 -1h17.5q24 0 50.5 2.5t50.5 5.5t41.5 5.5t22.5 2.5q6 2 10.5 12
t4.5 26q0 13 -8 21z" />
    <glyph glyph-name="uniAC9C" unicode="&#xac9c;" 
d="M725 412v24v15t-2 13q2 5 3 14t1 20q0 18 -2 38.5t-4 38.5q2 6 2 17v14t-2 19l-6 48q-8 23 -26 23q-23 0 -33 -14t-10 -25q0 -6 1 -15t2.5 -19t2.5 -19.5t1 -14.5q0 -8 -1 -11q0 -2 1 -12.5t1.5 -24.5t1.5 -27.5t1 -20.5v-10q0 -3 0.5 -7t0.5 -9q0 -8 -1 -20.5t-1.5 -26
t-1.5 -25t-1 -16.5q0 -7 0.5 -11t0.5 -9q0 -25 -5 -49.5t-5 -41.5q0 -14 11 -20.5t25 -6.5q20 0 29 15l7 44q2 11 3 20.5t1 16.5q0 8 -1 11q2 6 3 16.5t1.5 21t1 18.5zM576 381q1 7 1 17v24q0 29 -4 38q2 5 2 11.5v11.5v9.5v4t-0.5 9.5t-1.5 27q0 15 -1 48t-5 66.5
t-12.5 58.5t-23.5 25q-16 0 -27 -13t-13 -22q0 -1 1.5 -14.5t3.5 -29.5t4 -30t3 -16q0 -1 0.5 -14t1 -30.5l1 -36.5t0.5 -31q0 -11 -4 -15.5t-12.5 -6t-22.5 -1.5t-33 -3h-8q-9 0 -24.5 -2t-31 -6.5t-26.5 -12t-11 -17.5q0 -12 4 -19.5t9.5 -11.5t11.5 -5t11 -1q30 0 49 2.5
t33 5.5l26 5.5t29 2.5v-8q0 -29 -1.5 -50.5t-3 -38t-3 -29t-1.5 -24.5q0 -36 37 -36q18 0 28.5 16.5t10.5 63.5q0 12 -2 15q3 17 3.5 37t1.5 26zM314 534q-11 9 -27 15.5t-33 6.5h-8q-18 3 -32.5 6.5t-31 6t-39 4.5t-56.5 2q-7 -2 -16 -12t-9 -25q0 -11 6 -21q35 -7 59.5 -7
t46.5 -8h6q33 0 46.5 -7.5t13.5 -8.5q0 -8 -6 -22.5t-15 -29.5t-18.5 -28.5t-15.5 -19.5q-10 -20 -21.5 -35.5t-28.5 -40.5q4 -12 9 -23.5t22 -11.5q9 0 21 3q7 10 22.5 26.5t19.5 29.5l13 20l16 24t9.5 16l6.5 13.5t6 15.5q7 9 13.5 21.5t12 25.5t8.5 24t3 19q0 10 -3 21z
M504 78v9q0 22 -2.5 36t-5.5 22q-22 8 -45 10t-40 4q-9 3 -19 4t-21 1q-12 0 -22.5 -1t-17.5 -3q-4 1 -8 1h-8q-26 0 -40.5 -3t-21 -9t-8 -15t-1.5 -21q0 -17 2 -32t5 -30t5 -32.5t2 -40.5q0 -18 7 -35.5t11 -25.5q5 -1 11 -1.5t14 -0.5q3 0 6.5 0.5t7.5 0.5h35
q6 0 11.5 -0.5t10.5 -0.5q4 0 13.5 1.5t20.5 3.5t22 3.5t19 1.5h10q13 0 29 4q7 11 9 27.5t2 30.5v11q2 18 4 40t3 40zM437 88q1 -5 1.5 -8.5t0.5 -7.5q0 -9 -1.5 -18l-3.5 -20v-5q0 -13 -2 -22.5t-3 -20.5q-7 -4 -20 -5.5t-26.5 -2t-24 -0.5h-13.5h-9t-9 -1
q-6 12 -8.5 28.5t-3.5 33.5t-2 31.5t-2 22.5q8 1 16 1.5t16 0.5t14.5 -0.5t12.5 -0.5h9q19 0 30 -2t28 -4z" />
    <glyph glyph-name="uniAC9D" unicode="&#xac9d;" 
d="M725 412v24v15t-2 13q2 5 3 14t1 20q0 18 -2 38.5t-4 38.5q2 6 2 17v14t-2 19l-6 48q-8 23 -26 23q-23 0 -33 -14t-10 -25q0 -6 1 -15t2.5 -19t2.5 -19.5t1 -14.5q0 -8 -1 -11q0 -2 1 -12.5t1.5 -24.5t1.5 -27.5t1 -20.5v-10q0 -3 0.5 -7t0.5 -9q0 -8 -1 -20.5t-1.5 -26
t-1.5 -25t-1 -16.5q0 -7 0.5 -11t0.5 -9q0 -25 -5 -49.5t-5 -41.5q0 -14 11 -20.5t25 -6.5q20 0 29 15l7 44q2 11 3 20.5t1 16.5q0 8 -1 11q2 6 3 16.5t1.5 21t1 18.5zM576 381q1 7 1 17v24q0 29 -4 38q2 5 2 11.5v11.5v9.5v4t-0.5 9.5t-1.5 27q0 15 -1 48t-5 66.5
t-12.5 58.5t-23.5 25q-16 0 -27 -13t-13 -22q0 -1 1.5 -14.5t3.5 -29.5t4 -30t3 -16q0 -1 0.5 -14t1 -30.5l1 -36.5t0.5 -31q0 -11 -4 -15.5t-12.5 -6t-22.5 -1.5t-33 -3h-8q-9 0 -24.5 -2t-31 -6.5t-26.5 -12t-11 -17.5q0 -12 4 -19.5t9.5 -11.5t11.5 -5t11 -1q30 0 49 2.5
t33 5.5l26 5.5t29 2.5v-8q0 -29 -1.5 -50.5t-3 -38t-3 -29t-1.5 -24.5q0 -36 37 -36q18 0 28.5 16.5t10.5 63.5q0 12 -2 15q3 17 3.5 37t1.5 26zM314 534q-11 9 -27 15.5t-33 6.5h-8q-18 3 -32.5 6.5t-31 6t-39 4.5t-56.5 2q-7 -2 -16 -12t-9 -25q0 -11 6 -21q35 -7 59.5 -7
t46.5 -8h6q33 0 46.5 -7.5t13.5 -8.5q0 -8 -6 -22.5t-15 -29.5t-18.5 -28.5t-15.5 -19.5q-10 -20 -21.5 -35.5t-28.5 -40.5q4 -12 9 -23.5t22 -11.5q9 0 21 3q7 10 22.5 26.5t19.5 29.5l13 20l16 24t9.5 16l6.5 13.5t6 15.5q7 9 13.5 21.5t12 25.5t8.5 24t3 19q0 10 -3 21z
M558 -4q0 -1 -1.5 15t-3 35.5t-3 35.5t-1.5 15q1 3 1 9q0 32 -10.5 52t-28.5 20q-10 0 -18.5 -7.5t-11.5 -13.5q0 -17 1.5 -28.5l3.5 -26t3.5 -34t1.5 -50.5l-45 -3q-16 -2 -26 -3t-14 -3h-11q-9 0 -21.5 -1.5l-24.5 -3t-21.5 -3t-10.5 -1.5q-2 0 -4 0.5t-5 0.5
q-5 0 -13.5 -0.5t-17 -1.5t-15 -2t-8.5 -1q-1 5 -1 35v14q0 14 -2 22q0 3 0.5 11.5t1.5 18.5t1.5 19t0.5 14q0 14 -9 20.5t-15 6.5q-29 0 -36 -26t-7 -86q0 -39 4 -51q-1 -5 -1 -11v-14q0 -11 0.5 -26t0.5 -27v-18t-1 -12q0 -10 3 -53l4 -60q-1 0 16 -1t39 -2.5t42.5 -3.5
t26.5 -2q5 -1 12 -1h17t22 0.5t26 0.5h79q10 -3 19 -3q23 0 39 13.5t16 34.5q0 3 -2 7q2 12 4.5 28.5t2.5 31.5q0 12 -3 21q2 9 2.5 19t0.5 21v38v11t1 10zM492 -45q0 -29 -0.5 -48t-2 -33.5t-3 -25t-3.5 -21.5q-10 -2 -40 -2q-41 0 -69 1t-38 4q-5 -1 -18 -1
q-15 0 -31.5 1.5l-27.5 2.5q0 6 -1 17t-1 19v5q0 4 -0.5 12.5t-1 18t-0.5 17.5v13l113 10q7 4 57 7z" />
    <glyph glyph-name="uniAC9F" unicode="&#xac9f;" 
d="M725 412v24v15t-2 13q2 5 3 14t1 20q0 18 -2 38.5t-4 38.5q2 6 2 17v14t-2 19l-6 48q-8 23 -26 23q-23 0 -33 -14t-10 -25q0 -6 1 -15t2.5 -19t2.5 -19.5t1 -14.5q0 -8 -1 -11q0 -2 1 -12.5t1.5 -24.5t1.5 -27.5t1 -20.5v-10q0 -3 0.5 -7t0.5 -9q0 -8 -1 -20.5t-1.5 -26
t-1.5 -25t-1 -16.5q0 -7 0.5 -11t0.5 -9q0 -25 -5 -49.5t-5 -41.5q0 -14 11 -20.5t25 -6.5q20 0 29 15l7 44q2 11 3 20.5t1 16.5q0 8 -1 11q2 6 3 16.5t1.5 21t1 18.5zM576 381q1 7 1 17v24q0 29 -4 38q2 5 2 11.5v11.5v9.5v4t-0.5 9.5t-1.5 27q0 15 -1 48t-5 66.5
t-12.5 58.5t-23.5 25q-16 0 -27 -13t-13 -22q0 -1 1.5 -14.5t3.5 -29.5t4 -30t3 -16q0 -1 0.5 -14t1 -30.5l1 -36.5t0.5 -31q0 -11 -4 -15.5t-12.5 -6t-22.5 -1.5t-33 -3h-8q-9 0 -24.5 -2t-31 -6.5t-26.5 -12t-11 -17.5q0 -12 4 -19.5t9.5 -11.5t11.5 -5t11 -1q30 0 49 2.5
t33 5.5l26 5.5t29 2.5v-8q0 -29 -1.5 -50.5t-3 -38t-3 -29t-1.5 -24.5q0 -36 37 -36q18 0 28.5 16.5t10.5 63.5q0 12 -2 15q3 17 3.5 37t1.5 26zM314 534q-11 9 -27 15.5t-33 6.5h-8q-18 3 -32.5 6.5t-31 6t-39 4.5t-56.5 2q-7 -2 -16 -12t-9 -25q0 -11 6 -21q35 -7 59.5 -7
t46.5 -8h6q33 0 46.5 -7.5t13.5 -8.5q0 -8 -6 -22.5t-15 -29.5t-18.5 -28.5t-15.5 -19.5q-10 -20 -21.5 -35.5t-28.5 -40.5q4 -12 9 -23.5t22 -11.5q9 0 21 3q7 10 22.5 26.5t19.5 29.5l13 20l16 24t9.5 16l6.5 13.5t6 15.5q7 9 13.5 21.5t12 25.5t8.5 24t3 19q0 10 -3 21z
M543 -21q-9 19 -18.5 28t-19 15.5l-20.5 13.5t-24 24q-14 10 -27 17.5t-22 17.5q5 6 15.5 17t11.5 24q-10 31 -43 31q-9 0 -13 -4l-28 -32q-15 -18 -21.5 -24.5l-9.5 -9.5t-6.5 -6t-12.5 -15l-19 -25q-7 -9 -17.5 -20l-21.5 -23.5t-19.5 -26t-11.5 -27.5q0 -2 3.5 -7t9 -10
t12.5 -9t14 -4q9 0 17.5 9.5t17.5 22.5t19 26t23 20q1 2 6 9t11 14.5t12 14t9 8.5l19 -18q13 -12 21 -15q19 -15 33.5 -29l26.5 -25.5t22 -19t21 -9.5q1 0 6 4t11 10t10.5 12.5t4.5 12.5q0 2 -2 8z" />
    <glyph glyph-name="uniACA0" unicode="&#xaca0;" 
d="M373 10q-1 3 -3.5 4t-7 3.5t-10.5 8t-14 16.5q-15 10 -26.5 22.5t-19.5 15.5q1 2 6.5 7t11.5 12t11 14t5 13q0 11 -7.5 24.5t-24.5 13.5q-14 0 -28 -11.5t-27.5 -26.5l-26.5 -30t-23 -21l-43 -49q-10 -13 -26 -30t-21 -34q0 -6 11 -19t26 -13q5 0 17.5 10.5t28 26
l33 33.5l33.5 34q15 -10 31 -24t29 -27l21 -21.5t8 -7.5q-6 -9 -12 -20.5l-12 -23t-10 -22t-5 -17.5q1 -4 12.5 -14.5t24.5 -10.5q14 0 28 22.5t38 68.5q8 13 14.5 22l12 16.5l11 15.5l13.5 20q3 -2 6.5 -7t8 -10.5t9 -10t7.5 -5.5q16 -10 24.5 -21.5t17.5 -18.5
q4 -3 10 -10.5l12.5 -15t14 -14t13.5 -7.5l25 11q15 6 15 19q0 10 -6.5 20.5t-14.5 19.5t-17 16l-13 10q-4 6 -14 16l-22 21l-23 21.5l-18 17.5l21 36q17 28 17 40q-6 14 -16 19t-25 5h-14.5t-8 -8l-15 -28t-34.5 -60q-3 -2 -8.5 -9.5t-11 -16.5l-11 -18t-8.5 -13zM314 534
q-11 9 -27 15.5t-33 6.5h-8q-18 3 -32.5 6.5t-31 6t-39 4.5t-56.5 2q-7 -2 -16 -12t-9 -25q0 -11 6 -21q35 -7 59.5 -7t46.5 -8h6q33 0 46.5 -7.5t13.5 -8.5q0 -8 -6 -22.5t-15 -29.5t-18.5 -28.5t-15.5 -19.5q-10 -20 -21.5 -35.5t-28.5 -40.5q4 -12 9 -23.5t22 -11.5
q9 0 21 3q7 10 22.5 26.5t19.5 29.5l13 20l16 24t9.5 16l6.5 13.5t6 15.5q7 9 13.5 21.5t12 25.5t8.5 24t3 19q0 10 -3 21zM576 381q1 7 1 17v24q0 29 -4 38q2 5 2 11.5v11.5v9.5v4t-0.5 9.5t-1.5 27q0 15 -1 48t-5 66.5t-12.5 58.5t-23.5 25q-16 0 -27 -13t-13 -22
q0 -1 1.5 -14.5t3.5 -29.5t4 -30t3 -16q0 -1 0.5 -14t1 -30.5l1 -36.5t0.5 -31q0 -11 -4 -15.5t-12.5 -6t-22.5 -1.5t-33 -3h-8q-9 0 -24.5 -2t-31 -6.5t-26.5 -12t-11 -17.5q0 -12 4 -19.5t9.5 -11.5t11.5 -5t11 -1q30 0 49 2.5t33 5.5l26 5.5t29 2.5v-8q0 -29 -1.5 -50.5
t-3 -38t-3 -29t-1.5 -24.5q0 -36 37 -36q18 0 28.5 16.5t10.5 63.5q0 12 -2 15q3 17 3.5 37t1.5 26zM725 412v24v15t-2 13q2 5 3 14t1 20q0 18 -2 38.5t-4 38.5q2 6 2 17v14t-2 19l-6 48q-8 23 -26 23q-23 0 -33 -14t-10 -25q0 -6 1 -15t2.5 -19t2.5 -19.5t1 -14.5
q0 -8 -1 -11q0 -2 1 -12.5t1.5 -24.5t1.5 -27.5t1 -20.5v-10q0 -3 0.5 -7t0.5 -9q0 -8 -1 -20.5t-1.5 -26t-1.5 -25t-1 -16.5q0 -7 0.5 -11t0.5 -9q0 -25 -5 -49.5t-5 -41.5q0 -14 11 -20.5t25 -6.5q20 0 29 15l7 44q2 11 3 20.5t1 16.5q0 8 -1 11q2 6 3 16.5t1.5 21t1 18.5
z" />
    <glyph glyph-name="uniACA1" unicode="&#xaca1;" 
d="M725 412v24v15t-2 13q2 5 3 14t1 20q0 18 -2 38.5t-4 38.5q2 6 2 17v14t-2 19l-6 48q-8 23 -26 23q-23 0 -33 -14t-10 -25q0 -6 1 -15t2.5 -19t2.5 -19.5t1 -14.5q0 -8 -1 -11q0 -2 1 -12.5t1.5 -24.5t1.5 -27.5t1 -20.5v-10q0 -3 0.5 -7t0.5 -9q0 -8 -1 -20.5t-1.5 -26
t-1.5 -25t-1 -16.5q0 -7 0.5 -11t0.5 -9q0 -25 -5 -49.5t-5 -41.5q0 -14 11 -20.5t25 -6.5q20 0 29 15l7 44q2 11 3 20.5t1 16.5q0 8 -1 11q2 6 3 16.5t1.5 21t1 18.5zM576 381q1 7 1 17v24q0 29 -4 38q2 5 2 11.5v11.5v9.5v4t-0.5 9.5t-1.5 27q0 15 -1 48t-5 66.5
t-12.5 58.5t-23.5 25q-16 0 -27 -13t-13 -22q0 -1 1.5 -14.5t3.5 -29.5t4 -30t3 -16q0 -1 0.5 -14t1 -30.5l1 -36.5t0.5 -31q0 -11 -4 -15.5t-12.5 -6t-22.5 -1.5t-33 -3h-8q-9 0 -24.5 -2t-31 -6.5t-26.5 -12t-11 -17.5q0 -12 4 -19.5t9.5 -11.5t11.5 -5t11 -1q30 0 49 2.5
t33 5.5l26 5.5t29 2.5v-8q0 -29 -1.5 -50.5t-3 -38t-3 -29t-1.5 -24.5q0 -36 37 -36q18 0 28.5 16.5t10.5 63.5q0 12 -2 15q3 17 3.5 37t1.5 26zM314 534q-11 9 -27 15.5t-33 6.5h-8q-18 3 -32.5 6.5t-31 6t-39 4.5t-56.5 2q-7 -2 -16 -12t-9 -25q0 -11 6 -21q35 -7 59.5 -7
t46.5 -8h6q33 0 46.5 -7.5t13.5 -8.5q0 -8 -6 -22.5t-15 -29.5t-18.5 -28.5t-15.5 -19.5q-10 -20 -21.5 -35.5t-28.5 -40.5q4 -12 9 -23.5t22 -11.5q9 0 21 3q7 10 22.5 26.5t19.5 29.5l13 20l16 24t9.5 16l6.5 13.5t6 15.5q7 9 13.5 21.5t12 25.5t8.5 24t3 19q0 10 -3 21z
M490 21q0 2 0.5 5t0.5 7q0 11 -2.5 29t-2.5 25q0 2 0.5 3t0.5 2q-10 14 -15 23.5t-11.5 16.5t-17.5 12.5t-33 11.5l-19.5 5.5t-13.5 1.5h-2.5t-3.5 -0.5t-10 -1l-20 -1.5q-14 -1 -20 -1.5t-9 -3t-7 -8t-15 -16.5q-13 -13 -20 -22.5t-10 -17.5t-3.5 -16t-0.5 -18
q0 -13 0.5 -24.5t4 -23.5t11.5 -25t24 -29q20 -20 32 -25.5t28 -5.5q20 0 43 6t47 14q6 7 13.5 18.5l14.5 23t11.5 21t4.5 14.5zM422 67v-8q0 -24 -3 -37.5t-10 -20.5t-19 -8.5t-29 -2.5q-20 7 -28.5 25.5t-9.5 38.5q1 15 8 24.5t15.5 14t16.5 6t11 1.5q10 0 19 -5t15 -11
t10 -11t4 -6z" />
    <glyph glyph-name="uniACA8" unicode="&#xaca8;" 
d="M676 383q-1 30 -2 56q-1 22 -1.5 41.5t-1.5 24.5q2 6 2 17v14t-2 19l-6 48q-8 23 -26 23q-23 0 -33 -14t-10 -25q0 -6 1 -15t2.5 -19t2.5 -19.5t1 -14.5q0 -8 -1 -11q0 -2 1 -12.5t1.5 -24.5t1.5 -27.5t1 -20.5q0 -8 -0.5 -9.5t-5.5 -1.5q-9 0 -27 3.5t-28 3.5h-6
q-6 1 -20 4t-31.5 5l-34.5 4t-28 2q-17 0 -24 -9.5t-7 -20.5q0 -14 5.5 -23t18.5 -13.5t34 -6t52 -1.5q3 0 4.5 0.5t3.5 0.5q22 -7 46.5 -8t48.5 -3q0 -8 0.5 -16.5t0.5 -17.5q0 -14 -1 -21t-5.5 -10t-13 -3.5t-24.5 -0.5h-26.5t-15.5 1q-15 -3 -36 -4.5l-41 -3t-37.5 -2.5
t-24.5 -2q-12 -15 -12 -31q0 -11 7 -20t23 -11q5 0 14.5 0.5t20 1.5t21 1.5t17.5 0.5h8q11 2 40 5t64 3q12 0 14.5 -1t2.5 -13q0 -11 -1.5 -28.5l-3 -36.5t-3 -35.5t-1.5 -24.5q0 -30 35 -30q20 0 29 15l7 44q2 11 3 20.5t1 16.5q0 8 -1 11q2 5 2.5 18t1.5 28l2 38v34v13
q0 15 -2 25q2 6 3 17t1 23q0 8 -0.5 16t-0.5 13zM344 414q-11 9 -27 15.5t-33 6.5h-8q-18 3 -32.5 6.5t-31 6t-39 4.5t-56.5 2q-7 -2 -16 -12t-9 -25q0 -11 6 -21q35 -7 59.5 -7t46.5 -8h6q33 0 46.5 -7.5t13.5 -8.5q0 -8 -6 -22.5t-15 -29.5t-18.5 -28.5t-15.5 -19.5
q-10 -20 -21.5 -35.5t-28.5 -40.5q4 -12 9 -23.5t22 -11.5q9 0 21 3q7 10 22.5 26.5t19.5 29.5l13 20l16 24t9.5 16l6.5 13.5t6 15.5q7 9 13.5 21.5t12 25.5t8.5 24t3 19q0 10 -3 21z" />
    <glyph glyph-name="uniACA9" unicode="&#xaca9;" 
d="M676 503q-1 30 -2 56q-1 22 -1.5 41.5t-1.5 24.5q2 6 2 17v14t-2 19l-6 48q-8 23 -26 23q-23 0 -33 -14t-10 -25q0 -6 1 -15t2.5 -19t2.5 -19.5t1 -14.5q0 -8 -1 -11q0 -2 1 -12.5t1.5 -24.5t1.5 -27.5t1 -20.5q0 -8 -0.5 -9.5t-5.5 -1.5q-9 0 -27 3.5t-28 3.5h-6
q-6 1 -20 4t-31.5 5l-34.5 4t-28 2q-17 0 -24 -9.5t-7 -20.5q0 -14 5.5 -23t18.5 -13.5t34 -6t52 -1.5q3 0 4.5 0.5t3.5 0.5q22 -7 46.5 -8t48.5 -3q0 -8 0.5 -16.5t0.5 -17.5q0 -14 -1 -21t-5.5 -10t-13 -3.5t-24.5 -0.5h-26.5t-15.5 1q-15 -3 -36 -4.5l-41 -3t-37.5 -2.5
t-24.5 -2q-12 -15 -12 -31q0 -11 7 -20t23 -11q5 0 14.5 0.5t20 1.5t21 1.5t17.5 0.5h8q11 2 40 5t64 3h13.5t3.5 -11q0 -25 -5 -49.5t-5 -41.5q0 -14 11 -20.5t25 -6.5q20 0 29 15l7 44q2 11 3 20.5t1 16.5q0 8 -1 11q2 6 3 16.5t1.5 21t1 18.5l0.5 8v24v15t-2 13q2 6 3 17
t1 23q0 8 -0.5 16t-0.5 13zM344 534q-11 9 -27 15.5t-33 6.5h-8q-18 3 -32.5 6.5t-31 6t-39 4.5t-56.5 2q-7 -2 -16 -12t-9 -25q0 -11 6 -21q35 -7 59.5 -7t46.5 -8h6q33 0 46.5 -7.5t13.5 -8.5q0 -8 -6 -22.5t-15 -29.5t-18.5 -28.5t-15.5 -19.5q-10 -20 -21.5 -35.5
t-28.5 -40.5q4 -12 9 -23.5t22 -11.5q9 0 21 3q7 10 22.5 26.5t19.5 29.5l13 20l16 24t9.5 16l6.5 13.5t6 15.5q7 9 13.5 21.5t12 25.5t8.5 24t3 19q0 10 -3 21zM504 91q4 13 4 25q0 21 -16 33.5t-39 12.5q-4 0 -8 -2l-24 4.5t-25 2.5q-9 0 -18 -3q-6 2 -12 2h-11
q-13 0 -23.5 -1.5t-21.5 -1.5q-7 0 -11 1q-42 -5 -57 -15t-15 -26q0 -10 8 -18.5t13 -11.5q9 0 19.5 2.5t25.5 2.5q3 0 6.5 -0.5t7.5 -0.5q7 2 21 3t24 1h8q3 0 6.5 0.5t7.5 0.5q9 0 19.5 -1t19.5 -2.5t15.5 -3.5t6.5 -5v-13t-2 -19l-5 -44v-8q0 -20 -8.5 -44.5t-8.5 -50.5
q17 -13 34 -13q11 0 17 2.5t9.5 8.5t6 16t7.5 25q6 17 9.5 31t6 28.5t3.5 30t1 34.5q0 5 -0.5 9t-0.5 8z" />
    <glyph glyph-name="uniACAA" unicode="&#xacaa;" 
d="M676 503q-1 30 -2 56q-1 22 -1.5 41.5t-1.5 24.5q2 6 2 17v14t-2 19l-6 48q-8 23 -26 23q-23 0 -33 -14t-10 -25q0 -6 1 -15t2.5 -19t2.5 -19.5t1 -14.5q0 -8 -1 -11q0 -2 1 -12.5t1.5 -24.5t1.5 -27.5t1 -20.5q0 -8 -0.5 -9.5t-5.5 -1.5q-9 0 -27 3.5t-28 3.5h-6
q-6 1 -20 4t-31.5 5l-34.5 4t-28 2q-17 0 -24 -9.5t-7 -20.5q0 -14 5.5 -23t18.5 -13.5t34 -6t52 -1.5q3 0 4.5 0.5t3.5 0.5q22 -7 46.5 -8t48.5 -3q0 -8 0.5 -16.5t0.5 -17.5q0 -14 -1 -21t-5.5 -10t-13 -3.5t-24.5 -0.5h-26.5t-15.5 1q-15 -3 -36 -4.5l-41 -3t-37.5 -2.5
t-24.5 -2q-12 -15 -12 -31q0 -11 7 -20t23 -11q5 0 14.5 0.5t20 1.5t21 1.5t17.5 0.5h8q11 2 40 5t64 3h13.5t3.5 -11q0 -25 -5 -49.5t-5 -41.5q0 -14 11 -20.5t25 -6.5q20 0 29 15l7 44q2 11 3 20.5t1 16.5q0 8 -1 11q2 6 3 16.5t1.5 21t1 18.5l0.5 8v24v15t-2 13q2 6 3 17
t1 23q0 8 -0.5 16t-0.5 13zM344 534q-11 9 -27 15.5t-33 6.5h-8q-18 3 -32.5 6.5t-31 6t-39 4.5t-56.5 2q-7 -2 -16 -12t-9 -25q0 -11 6 -21q35 -7 59.5 -7t46.5 -8h6q33 0 46.5 -7.5t13.5 -8.5q0 -8 -6 -22.5t-15 -29.5t-18.5 -28.5t-15.5 -19.5q-10 -20 -21.5 -35.5
t-28.5 -40.5q4 -12 9 -23.5t22 -11.5q9 0 21 3q7 10 22.5 26.5t19.5 29.5l13 20l16 24t9.5 16l6.5 13.5t6 15.5q7 9 13.5 21.5t12 25.5t8.5 24t3 19q0 10 -3 21zM598 16q2 10 2 20q0 29 -0.5 53.5t-11.5 41.5q-6 3 -17 7t-23 7.5t-24 6t-21 2.5t-12 -1q-23 2 -43.5 5
t-36.5 3q-25 -11 -25 -38q0 -22 22 -28h5q6 0 21 -2l32.5 -4.5t34 -5.5l27.5 -5q5 -8 5 -22q0 -7 -0.5 -14.5t-0.5 -15.5q0 -7 1 -14t1 -14q0 -14 -3.5 -28t-3.5 -28q0 -2 -1.5 -9.5t-3.5 -16.5t-3.5 -18t-1.5 -14q0 -9 12 -15t19 -6q14 0 33 11q0 3 2 12t4.5 19t4 20
t1.5 16v7q6 22 6 44v12t-1 12zM364 50q5 18 5 28q0 20 -16.5 31.5t-37.5 11.5q-4 0 -8 -2q-20 2 -40 2.5t-46 4.5q-42 -5 -57 -15t-15 -26q0 -10 8 -18.5t13 -11.5q9 0 19.5 2.5t25.5 2.5q3 0 6.5 -0.5t7.5 -0.5q5 1 8.5 1h7.5t13 -0.5t17.5 -2t15 -3t6.5 -4.5q0 -8 -3 -23
l-5 -34q-2 -13 -5 -22t-6 -16.5t-5.5 -15.5t-2.5 -20q0 -11 4 -17t9.5 -9t12 -4t11.5 -1q14 0 24.5 15.5t18 38.5t11 49t3.5 48v11z" />
    <glyph glyph-name="uniACAC" unicode="&#xacac;" 
d="M676 503q-1 30 -2 56q-1 22 -1.5 41.5t-1.5 24.5q2 6 2 17v14t-2 19l-6 48q-8 23 -26 23q-23 0 -33 -14t-10 -25q0 -6 1 -15t2.5 -19t2.5 -19.5t1 -14.5q0 -8 -1 -11q0 -2 1 -12.5t1.5 -24.5t1.5 -27.5t1 -20.5q0 -8 -0.5 -9.5t-5.5 -1.5q-9 0 -27 3.5t-28 3.5h-6
q-6 1 -20 4t-31.5 5l-34.5 4t-28 2q-17 0 -24 -9.5t-7 -20.5q0 -14 5.5 -23t18.5 -13.5t34 -6t52 -1.5q3 0 4.5 0.5t3.5 0.5q22 -7 46.5 -8t48.5 -3q0 -8 0.5 -16.5t0.5 -17.5q0 -14 -1 -21t-5.5 -10t-13 -3.5t-24.5 -0.5h-26.5t-15.5 1q-15 -3 -36 -4.5l-41 -3t-37.5 -2.5
t-24.5 -2q-12 -15 -12 -31q0 -11 7 -20t23 -11q5 0 14.5 0.5t20 1.5t21 1.5t17.5 0.5h8q11 2 40 5t64 3h13.5t3.5 -11q0 -25 -5 -49.5t-5 -41.5q0 -14 11 -20.5t25 -6.5q20 0 29 15l7 44q2 11 3 20.5t1 16.5q0 8 -1 11q2 6 3 16.5t1.5 21t1 18.5l0.5 8v24v15t-2 13q2 6 3 17
t1 23q0 8 -0.5 16t-0.5 13zM344 534q-11 9 -27 15.5t-33 6.5h-8q-18 3 -32.5 6.5t-31 6t-39 4.5t-56.5 2q-7 -2 -16 -12t-9 -25q0 -11 6 -21q35 -7 59.5 -7t46.5 -8h6q33 0 46.5 -7.5t13.5 -8.5q0 -8 -6 -22.5t-15 -29.5t-18.5 -28.5t-15.5 -19.5q-10 -20 -21.5 -35.5
t-28.5 -40.5q4 -12 9 -23.5t22 -11.5q9 0 21 3q7 10 22.5 26.5t19.5 29.5l13 20l16 24t9.5 16l6.5 13.5t6 15.5q7 9 13.5 21.5t12 25.5t8.5 24t3 19q0 10 -3 21zM504 -42q15 16 15 29q0 10 -8 18.5t-13 11.5q-36 -4 -57 -7t-45 -3q-10 0 -23 0.5t-25.5 0.5t-23 0.5
t-16.5 0.5q-7 21 -6.5 39t-1.5 49v18q0 11 -1 24t-3 23q-11 6 -19 9.5t-16 3.5q-6 0 -11.5 -2t-10 -9t-7 -20.5t-2.5 -36.5q0 -31 2.5 -51.5t6.5 -46.5q-1 -5 -1 -15q0 -29 15 -48q8 -3 19.5 -4.5t20.5 -1.5q11 0 14 2q11 -1 25 -2t28 -1q30 0 51 1.5t37.5 3.5t29 5.5
t26.5 8.5z" />
    <glyph glyph-name="uniACAF" unicode="&#xacaf;" 
d="M676 503q-1 30 -2 56q-1 22 -1.5 41.5t-1.5 24.5q2 6 2 17v14t-2 19l-6 48q-8 23 -26 23q-23 0 -33 -14t-10 -25q0 -6 1 -15t2.5 -19t2.5 -19.5t1 -14.5q0 -8 -1 -11q0 -2 1 -12.5t1.5 -24.5t1.5 -27.5t1 -20.5q0 -8 -0.5 -9.5t-5.5 -1.5q-9 0 -27 3.5t-28 3.5h-6
q-6 1 -20 4t-31.5 5l-34.5 4t-28 2q-17 0 -24 -9.5t-7 -20.5q0 -14 5.5 -23t18.5 -13.5t34 -6t52 -1.5q3 0 4.5 0.5t3.5 0.5q22 -7 46.5 -8t48.5 -3q0 -8 0.5 -16.5t0.5 -17.5q0 -14 -1 -21t-5.5 -10t-13 -3.5t-24.5 -0.5h-26.5t-15.5 1q-15 -3 -36 -4.5l-41 -3t-37.5 -2.5
t-24.5 -2q-12 -15 -12 -31q0 -11 7 -20t23 -11q5 0 14.5 0.5t20 1.5t21 1.5t17.5 0.5h8q11 2 40 5t64 3h13.5t3.5 -11q0 -25 -5 -49.5t-5 -41.5q0 -14 11 -20.5t25 -6.5q20 0 29 15l7 44q2 11 3 20.5t1 16.5q0 8 -1 11q2 6 3 16.5t1.5 21t1 18.5l0.5 8v24v15t-2 13q2 6 3 17
t1 23q0 8 -0.5 16t-0.5 13zM344 534q-11 9 -27 15.5t-33 6.5h-8q-18 3 -32.5 6.5t-31 6t-39 4.5t-56.5 2q-7 -2 -16 -12t-9 -25q0 -11 6 -21q35 -7 59.5 -7t46.5 -8h6q33 0 46.5 -7.5t13.5 -8.5q0 -8 -6 -22.5t-15 -29.5t-18.5 -28.5t-15.5 -19.5q-10 -20 -21.5 -35.5
t-28.5 -40.5q4 -12 9 -23.5t22 -11.5q9 0 21 3q7 10 22.5 26.5t19.5 29.5l13 20l16 24t9.5 16l6.5 13.5t6 15.5q7 9 13.5 21.5t12 25.5t8.5 24t3 19q0 10 -3 21zM541 -173q17 17 17 29q0 10 -7.5 18.5t-12.5 12.5q-12 0 -27 -2l-23 -3q-19 3 -36 3t-38 1l-48 4q-18 1 -26 3
t-11 7.5t-2 17t1 31.5q0 41 4 53q-3 15 -3 28q0 17 3 30t5 24q27 4 45 5.5t40 2.5q11 3 23 4t22 3.5t16.5 9t6.5 21.5q0 38 -23 39q-11 -3 -30 -6.5t-38.5 -7.5t-37.5 -6.5t-28 -2.5h-26h-16t-12 -1l-13 -49q-3 -10 -3.5 -18.5t-1.5 -15.5q0 -14 5 -22q0 -11 0.5 -20.5
t0.5 -17.5q0 -9 -0.5 -16.5t-0.5 -14.5l-3 -64q-4 -11 -4 -21q0 -26 17.5 -40.5t42.5 -14.5q2 0 2.5 0.5t2.5 0.5q14 -2 33 -6t34 -4q6 0 14 2q11 -3 22 -4t23 -1q27 0 51 2.5t40 5.5z" />
    <glyph glyph-name="uniACB0" unicode="&#xacb0;" 
d="M676 503q-1 30 -2 56q-1 22 -1.5 41.5t-1.5 24.5q2 6 2 17v14t-2 19l-6 48q-8 23 -26 23q-23 0 -33 -14t-10 -25q0 -6 1 -15t2.5 -19t2.5 -19.5t1 -14.5q0 -8 -1 -11q0 -2 1 -12.5t1.5 -24.5t1.5 -27.5t1 -20.5q0 -8 -0.5 -9.5t-5.5 -1.5q-9 0 -27 3.5t-28 3.5h-6
q-6 1 -20 4t-31.5 5l-34.5 4t-28 2q-17 0 -24 -9.5t-7 -20.5q0 -14 5.5 -23t18.5 -13.5t34 -6t52 -1.5q3 0 4.5 0.5t3.5 0.5q22 -7 46.5 -8t48.5 -3q0 -8 0.5 -16.5t0.5 -17.5q0 -14 -1 -21t-5.5 -10t-13 -3.5t-24.5 -0.5h-26.5t-15.5 1q-15 -3 -36 -4.5l-41 -3t-37.5 -2.5
t-24.5 -2q-12 -15 -12 -31q0 -11 7 -20t23 -11q5 0 14.5 0.5t20 1.5t21 1.5t17.5 0.5h8q11 2 40 5t64 3h13.5t3.5 -11q0 -25 -5 -49.5t-5 -41.5q0 -14 11 -20.5t25 -6.5q20 0 29 15l7 44q2 11 3 20.5t1 16.5q0 8 -1 11q2 6 3 16.5t1.5 21t1 18.5l0.5 8v24v15t-2 13q2 6 3 17
t1 23q0 8 -0.5 16t-0.5 13zM344 534q-11 9 -27 15.5t-33 6.5h-8q-18 3 -32.5 6.5t-31 6t-39 4.5t-56.5 2q-7 -2 -16 -12t-9 -25q0 -11 6 -21q35 -7 59.5 -7t46.5 -8h6q33 0 46.5 -7.5t13.5 -8.5q0 -8 -6 -22.5t-15 -29.5t-18.5 -28.5t-15.5 -19.5q-10 -20 -21.5 -35.5
t-28.5 -40.5q4 -12 9 -23.5t22 -11.5q9 0 21 3q7 10 22.5 26.5t19.5 29.5l13 20l16 24t9.5 16l6.5 13.5t6 15.5q7 9 13.5 21.5t12 25.5t8.5 24t3 19q0 10 -3 21zM582 -162q-6 3 -20 3q-20 0 -40 -3t-26 -3q-21 -3 -32.5 -4t-21.5 -1q-5 0 -9.5 0.5t-9.5 0.5q-6 -3 -34 -3
q-23 0 -46 0.5t-42 2.5q-22 1 -43 3q-1 3 -1 11q1 14 2 30t3 27l5 37q3 26 11 36q14 3 26.5 5t26 3.5t30.5 2.5t40 1h51q4 1 11.5 3.5t15.5 4.5t15 4t10 3q15 27 21 54t11 55q0 8 -4.5 26t-15.5 28q-21 5 -41.5 11t-28.5 6q-3 -1 -13 -1h-10t-12 1l-42 4q-10 6 -30.5 6.5
t-30.5 3.5q-9 -5 -13 -15t-4 -20q0 -15 12.5 -23t28.5 -11.5t30.5 -4t18.5 -0.5q2 -1 11 -3t25 -4l47 -7q0 -16 -5 -31.5t-11 -26.5q-7 -1 -17 -1h-24h-9q-10 0 -17 -1t-12 -3q-5 1 -16 1q-29 0 -51 -4.5t-50 -4.5h-8q-20 0 -32 -14t-12 -40q0 -6 3 -9l-9 -73
q-5 -45 -7.5 -59t-2.5 -12q0 -11 6 -21.5t14.5 -19t18.5 -13.5t18 -6q30 -2 59 -3.5t53 -2.5t39.5 -1h17.5q24 0 50.5 2.5t50.5 5.5t41.5 5.5t22.5 2.5q6 2 10.5 12t4.5 26q0 13 -8 21z" />
    <glyph glyph-name="uniACB8" unicode="&#xacb8;" 
d="M676 503q-1 30 -2 56q-1 22 -1.5 41.5t-1.5 24.5q2 6 2 17v14t-2 19l-6 48q-8 23 -26 23q-23 0 -33 -14t-10 -25q0 -6 1 -15t2.5 -19t2.5 -19.5t1 -14.5q0 -8 -1 -11q0 -2 1 -12.5t1.5 -24.5t1.5 -27.5t1 -20.5q0 -8 -0.5 -9.5t-5.5 -1.5q-9 0 -27 3.5t-28 3.5h-6
q-6 1 -20 4t-31.5 5l-34.5 4t-28 2q-17 0 -24 -9.5t-7 -20.5q0 -14 5.5 -23t18.5 -13.5t34 -6t52 -1.5q3 0 4.5 0.5t3.5 0.5q22 -7 46.5 -8t48.5 -3q0 -8 0.5 -16.5t0.5 -17.5q0 -14 -1 -21t-5.5 -10t-13 -3.5t-24.5 -0.5h-26.5t-15.5 1q-15 -3 -36 -4.5l-41 -3t-37.5 -2.5
t-24.5 -2q-12 -15 -12 -31q0 -11 7 -20t23 -11q5 0 14.5 0.5t20 1.5t21 1.5t17.5 0.5h8q11 2 40 5t64 3h13.5t3.5 -11q0 -25 -5 -49.5t-5 -41.5q0 -14 11 -20.5t25 -6.5q20 0 29 15l7 44q2 11 3 20.5t1 16.5q0 8 -1 11q2 6 3 16.5t1.5 21t1 18.5l0.5 8v24v15t-2 13q2 6 3 17
t1 23q0 8 -0.5 16t-0.5 13zM344 534q-11 9 -27 15.5t-33 6.5h-8q-18 3 -32.5 6.5t-31 6t-39 4.5t-56.5 2q-7 -2 -16 -12t-9 -25q0 -11 6 -21q35 -7 59.5 -7t46.5 -8h6q33 0 46.5 -7.5t13.5 -8.5q0 -8 -6 -22.5t-15 -29.5t-18.5 -28.5t-15.5 -19.5q-10 -20 -21.5 -35.5
t-28.5 -40.5q4 -12 9 -23.5t22 -11.5q9 0 21 3q7 10 22.5 26.5t19.5 29.5l13 20l16 24t9.5 16l6.5 13.5t6 15.5q7 9 13.5 21.5t12 25.5t8.5 24t3 19q0 10 -3 21zM504 78v9q0 22 -2.5 36t-5.5 22q-22 8 -45 10t-40 4q-9 3 -19 4t-21 1q-12 0 -22.5 -1t-17.5 -3q-4 1 -8 1h-8
q-26 0 -40.5 -3t-21 -9t-8 -15t-1.5 -21q0 -17 2 -32t5 -30t5 -32.5t2 -40.5q0 -18 7 -35.5t11 -25.5q5 -1 11 -1.5t14 -0.5q3 0 6.5 0.5t7.5 0.5h35q6 0 11.5 -0.5t10.5 -0.5q4 0 13.5 1.5t20.5 3.5t22 3.5t19 1.5h10q13 0 29 4q7 11 9 27.5t2 30.5v11q2 18 4 40t3 40z
M437 88q1 -5 1.5 -8.5t0.5 -7.5q0 -9 -1.5 -18l-3.5 -20v-5q0 -13 -2 -22.5t-3 -20.5q-7 -4 -20 -5.5t-26.5 -2t-24 -0.5h-13.5h-9t-9 -1q-6 12 -8.5 28.5t-3.5 33.5t-2 31.5t-2 22.5q8 1 16 1.5t16 0.5t14.5 -0.5t12.5 -0.5h9q19 0 30 -2t28 -4z" />
    <glyph glyph-name="uniACB9" unicode="&#xacb9;" 
d="M676 503q-1 30 -2 56q-1 22 -1.5 41.5t-1.5 24.5q2 6 2 17v14t-2 19l-6 48q-8 23 -26 23q-23 0 -33 -14t-10 -25q0 -6 1 -15t2.5 -19t2.5 -19.5t1 -14.5q0 -8 -1 -11q0 -2 1 -12.5t1.5 -24.5t1.5 -27.5t1 -20.5q0 -8 -0.5 -9.5t-5.5 -1.5q-9 0 -27 3.5t-28 3.5h-6
q-6 1 -20 4t-31.5 5l-34.5 4t-28 2q-17 0 -24 -9.5t-7 -20.5q0 -14 5.5 -23t18.5 -13.5t34 -6t52 -1.5q3 0 4.5 0.5t3.5 0.5q22 -7 46.5 -8t48.5 -3q0 -8 0.5 -16.5t0.5 -17.5q0 -14 -1 -21t-5.5 -10t-13 -3.5t-24.5 -0.5h-26.5t-15.5 1q-15 -3 -36 -4.5l-41 -3t-37.5 -2.5
t-24.5 -2q-12 -15 -12 -31q0 -11 7 -20t23 -11q5 0 14.5 0.5t20 1.5t21 1.5t17.5 0.5h8q11 2 40 5t64 3h13.5t3.5 -11q0 -25 -5 -49.5t-5 -41.5q0 -14 11 -20.5t25 -6.5q20 0 29 15l7 44q2 11 3 20.5t1 16.5q0 8 -1 11q2 6 3 16.5t1.5 21t1 18.5l0.5 8v24v15t-2 13q2 6 3 17
t1 23q0 8 -0.5 16t-0.5 13zM344 534q-11 9 -27 15.5t-33 6.5h-8q-18 3 -32.5 6.5t-31 6t-39 4.5t-56.5 2q-7 -2 -16 -12t-9 -25q0 -11 6 -21q35 -7 59.5 -7t46.5 -8h6q33 0 46.5 -7.5t13.5 -8.5q0 -8 -6 -22.5t-15 -29.5t-18.5 -28.5t-15.5 -19.5q-10 -20 -21.5 -35.5
t-28.5 -40.5q4 -12 9 -23.5t22 -11.5q9 0 21 3q7 10 22.5 26.5t19.5 29.5l13 20l16 24t9.5 16l6.5 13.5t6 15.5q7 9 13.5 21.5t12 25.5t8.5 24t3 19q0 10 -3 21zM558 -4q0 -1 -1.5 15t-3 35.5t-3 35.5t-1.5 15q1 3 1 9q0 32 -10.5 52t-28.5 20q-10 0 -18.5 -7.5t-11.5 -13.5
q0 -17 1.5 -28.5l3.5 -26t3.5 -34t1.5 -50.5l-45 -3q-16 -2 -26 -3t-14 -3h-11q-9 0 -21.5 -1.5l-24.5 -3t-21.5 -3t-10.5 -1.5q-2 0 -4 0.5t-5 0.5q-5 0 -13.5 -0.5t-17 -1.5t-15 -2t-8.5 -1q-1 5 -1 35v14q0 14 -2 22q0 3 0.5 11.5t1.5 18.5t1.5 19t0.5 14q0 14 -9 20.5
t-15 6.5q-29 0 -36 -26t-7 -86q0 -39 4 -51q-1 -5 -1 -11v-14q0 -11 0.5 -26t0.5 -27v-18t-1 -12q0 -10 3 -53l4 -60q-1 0 16 -1t39 -2.5t42.5 -3.5t26.5 -2q5 -1 12 -1h17t22 0.5t26 0.5h79q10 -3 19 -3q23 0 39 13.5t16 34.5q0 3 -2 7q2 12 4.5 28.5t2.5 31.5q0 12 -3 21
q2 9 2.5 19t0.5 21v38v11t1 10zM492 -45q0 -29 -0.5 -48t-2 -33.5t-3 -25t-3.5 -21.5q-10 -2 -40 -2q-41 0 -69 1t-38 4q-5 -1 -18 -1q-15 0 -31.5 1.5l-27.5 2.5q0 6 -1 17t-1 19v5q0 4 -0.5 12.5t-1 18t-0.5 17.5v13l113 10q7 4 57 7z" />
    <glyph glyph-name="uniACBB" unicode="&#xacbb;" 
d="M676 503q-1 30 -2 56q-1 22 -1.5 41.5t-1.5 24.5q2 6 2 17v14t-2 19l-6 48q-8 23 -26 23q-23 0 -33 -14t-10 -25q0 -6 1 -15t2.5 -19t2.5 -19.5t1 -14.5q0 -8 -1 -11q0 -2 1 -12.5t1.5 -24.5t1.5 -27.5t1 -20.5q0 -8 -0.5 -9.5t-5.5 -1.5q-9 0 -27 3.5t-28 3.5h-6
q-6 1 -20 4t-31.5 5l-34.5 4t-28 2q-17 0 -24 -9.5t-7 -20.5q0 -14 5.5 -23t18.5 -13.5t34 -6t52 -1.5q3 0 4.5 0.5t3.5 0.5q22 -7 46.5 -8t48.5 -3q0 -8 0.5 -16.5t0.5 -17.5q0 -14 -1 -21t-5.5 -10t-13 -3.5t-24.5 -0.5h-26.5t-15.5 1q-15 -3 -36 -4.5l-41 -3t-37.5 -2.5
t-24.5 -2q-12 -15 -12 -31q0 -11 7 -20t23 -11q5 0 14.5 0.5t20 1.5t21 1.5t17.5 0.5h8q11 2 40 5t64 3h13.5t3.5 -11q0 -25 -5 -49.5t-5 -41.5q0 -14 11 -20.5t25 -6.5q20 0 29 15l7 44q2 11 3 20.5t1 16.5q0 8 -1 11q2 6 3 16.5t1.5 21t1 18.5l0.5 8v24v15t-2 13q2 6 3 17
t1 23q0 8 -0.5 16t-0.5 13zM344 534q-11 9 -27 15.5t-33 6.5h-8q-18 3 -32.5 6.5t-31 6t-39 4.5t-56.5 2q-7 -2 -16 -12t-9 -25q0 -11 6 -21q35 -7 59.5 -7t46.5 -8h6q33 0 46.5 -7.5t13.5 -8.5q0 -8 -6 -22.5t-15 -29.5t-18.5 -28.5t-15.5 -19.5q-10 -20 -21.5 -35.5
t-28.5 -40.5q4 -12 9 -23.5t22 -11.5q9 0 21 3q7 10 22.5 26.5t19.5 29.5l13 20l16 24t9.5 16l6.5 13.5t6 15.5q7 9 13.5 21.5t12 25.5t8.5 24t3 19q0 10 -3 21zM543 -21q-9 19 -18.5 28t-19 15.5l-20.5 13.5t-24 24q-14 10 -27 17.5t-22 17.5q5 6 15.5 17t11.5 24
q-10 31 -43 31q-9 0 -13 -4l-28 -32q-15 -18 -21.5 -24.5l-9.5 -9.5t-6.5 -6t-12.5 -15l-19 -25q-7 -9 -17.5 -20l-21.5 -23.5t-19.5 -26t-11.5 -27.5q0 -2 3.5 -7t9 -10t12.5 -9t14 -4q9 0 17.5 9.5t17.5 22.5t19 26t23 20q1 2 6 9t11 14.5t12 14t9 8.5l19 -18
q13 -12 21 -15q19 -15 33.5 -29l26.5 -25.5t22 -19t21 -9.5q1 0 6 4t11 10t10.5 12.5t4.5 12.5q0 2 -2 8z" />
    <glyph glyph-name="uniACBC" unicode="&#xacbc;" 
d="M373 10q-1 3 -3.5 4t-7 3.5t-10.5 8t-14 16.5q-15 10 -26.5 22.5t-19.5 15.5q1 2 6.5 7t11.5 12t11 14t5 13q0 11 -7.5 24.5t-24.5 13.5q-14 0 -28 -11.5t-27.5 -26.5l-26.5 -30t-23 -21l-43 -49q-10 -13 -26 -30t-21 -34q0 -6 11 -19t26 -13q5 0 17.5 10.5t28 26
l33 33.5l33.5 34q15 -10 31 -24t29 -27l21 -21.5t8 -7.5q-6 -9 -12 -20.5l-12 -23t-10 -22t-5 -17.5q1 -4 12.5 -14.5t24.5 -10.5q14 0 28 22.5t38 68.5q8 13 14.5 22l12 16.5l11 15.5l13.5 20q3 -2 6.5 -7t8 -10.5t9 -10t7.5 -5.5q16 -10 24.5 -21.5t17.5 -18.5
q4 -3 10 -10.5l12.5 -15t14 -14t13.5 -7.5l25 11q15 6 15 19q0 10 -6.5 20.5t-14.5 19.5t-17 16l-13 10q-4 6 -14 16l-22 21l-23 21.5l-18 17.5l21 36q17 28 17 40q-6 14 -16 19t-25 5h-14.5t-8 -8l-15 -28t-34.5 -60q-3 -2 -8.5 -9.5t-11 -16.5l-11 -18t-8.5 -13zM344 534
q-11 9 -27 15.5t-33 6.5h-8q-18 3 -32.5 6.5t-31 6t-39 4.5t-56.5 2q-7 -2 -16 -12t-9 -25q0 -11 6 -21q35 -7 59.5 -7t46.5 -8h6q33 0 46.5 -7.5t13.5 -8.5q0 -8 -6 -22.5t-15 -29.5t-18.5 -28.5t-15.5 -19.5q-10 -20 -21.5 -35.5t-28.5 -40.5q4 -12 9 -23.5t22 -11.5
q9 0 21 3q7 10 22.5 26.5t19.5 29.5l13 20l16 24t9.5 16l6.5 13.5t6 15.5q7 9 13.5 21.5t12 25.5t8.5 24t3 19q0 10 -3 21zM676 503q-1 30 -2 56q-1 22 -1.5 41.5t-1.5 24.5q2 6 2 17v14t-2 19l-6 48q-8 23 -26 23q-23 0 -33 -14t-10 -25q0 -6 1 -15t2.5 -19t2.5 -19.5
t1 -14.5q0 -8 -1 -11q0 -2 1 -12.5t1.5 -24.5t1.5 -27.5t1 -20.5q0 -8 -0.5 -9.5t-5.5 -1.5q-9 0 -27 3.5t-28 3.5h-6q-6 1 -20 4t-31.5 5l-34.5 4t-28 2q-17 0 -24 -9.5t-7 -20.5q0 -14 5.5 -23t18.5 -13.5t34 -6t52 -1.5q3 0 4.5 0.5t3.5 0.5q22 -7 46.5 -8t48.5 -3
q0 -8 0.5 -16.5t0.5 -17.5q0 -14 -1 -21t-5.5 -10t-13 -3.5t-24.5 -0.5h-26.5t-15.5 1q-15 -3 -36 -4.5l-41 -3t-37.5 -2.5t-24.5 -2q-12 -15 -12 -31q0 -11 7 -20t23 -11q5 0 14.5 0.5t20 1.5t21 1.5t17.5 0.5h8q11 2 40 5t64 3h13.5t3.5 -11q0 -25 -5 -49.5t-5 -41.5
q0 -14 11 -20.5t25 -6.5q20 0 29 15l7 44q2 11 3 20.5t1 16.5q0 8 -1 11q2 6 3 16.5t1.5 21t1 18.5l0.5 8v24v15t-2 13q2 6 3 17t1 23q0 8 -0.5 16t-0.5 13z" />
    <glyph glyph-name="uniACBD" unicode="&#xacbd;" 
d="M676 503q-1 30 -2 56q-1 22 -1.5 41.5t-1.5 24.5q2 6 2 17v14t-2 19l-6 48q-8 23 -26 23q-23 0 -33 -14t-10 -25q0 -6 1 -15t2.5 -19t2.5 -19.5t1 -14.5q0 -8 -1 -11q0 -2 1 -12.5t1.5 -24.5t1.5 -27.5t1 -20.5q0 -8 -0.5 -9.5t-5.5 -1.5q-9 0 -27 3.5t-28 3.5h-6
q-6 1 -20 4t-31.5 5l-34.5 4t-28 2q-17 0 -24 -9.5t-7 -20.5q0 -14 5.5 -23t18.5 -13.5t34 -6t52 -1.5q3 0 4.5 0.5t3.5 0.5q22 -7 46.5 -8t48.5 -3q0 -8 0.5 -16.5t0.5 -17.5q0 -14 -1 -21t-5.5 -10t-13 -3.5t-24.5 -0.5h-26.5t-15.5 1q-15 -3 -36 -4.5l-41 -3t-37.5 -2.5
t-24.5 -2q-12 -15 -12 -31q0 -11 7 -20t23 -11q5 0 14.5 0.5t20 1.5t21 1.5t17.5 0.5h8q11 2 40 5t64 3h13.5t3.5 -11q0 -25 -5 -49.5t-5 -41.5q0 -14 11 -20.5t25 -6.5q20 0 29 15l7 44q2 11 3 20.5t1 16.5q0 8 -1 11q2 6 3 16.5t1.5 21t1 18.5l0.5 8v24v15t-2 13q2 6 3 17
t1 23q0 8 -0.5 16t-0.5 13zM344 534q-11 9 -27 15.5t-33 6.5h-8q-18 3 -32.5 6.5t-31 6t-39 4.5t-56.5 2q-7 -2 -16 -12t-9 -25q0 -11 6 -21q35 -7 59.5 -7t46.5 -8h6q33 0 46.5 -7.5t13.5 -8.5q0 -8 -6 -22.5t-15 -29.5t-18.5 -28.5t-15.5 -19.5q-10 -20 -21.5 -35.5
t-28.5 -40.5q4 -12 9 -23.5t22 -11.5q9 0 21 3q7 10 22.5 26.5t19.5 29.5l13 20l16 24t9.5 16l6.5 13.5t6 15.5q7 9 13.5 21.5t12 25.5t8.5 24t3 19q0 10 -3 21zM490 21q0 2 0.5 5t0.5 7q0 11 -2.5 29t-2.5 25q0 2 0.5 3t0.5 2q-10 14 -15 23.5t-11.5 16.5t-17.5 12.5
t-33 11.5l-19.5 5.5t-13.5 1.5h-2.5t-3.5 -0.5t-10 -1l-20 -1.5q-14 -1 -20 -1.5t-9 -3t-7 -8t-15 -16.5q-13 -13 -20 -22.5t-10 -17.5t-3.5 -16t-0.5 -18q0 -13 0.5 -24.5t4 -23.5t11.5 -25t24 -29q20 -20 32 -25.5t28 -5.5q20 0 43 6t47 14q6 7 13.5 18.5l14.5 23t11.5 21
t4.5 14.5zM422 67v-8q0 -24 -3 -37.5t-10 -20.5t-19 -8.5t-29 -2.5q-20 7 -28.5 25.5t-9.5 38.5q1 15 8 24.5t15.5 14t16.5 6t11 1.5q10 0 19 -5t15 -11t10 -11t4 -6z" />
    <glyph glyph-name="uniACC1" unicode="&#xacc1;" 
d="M318 15q1 23 3.5 44.5t4.5 30.5q47 7 84 10.5l77 7.5q12 6 12 28q0 38 -23 39l-42 -5q-9 -1 -16 -1.5t-13 -0.5q-11 0 -19 2q-6 -2 -8.5 -3.5t-6.5 -2.5t-11.5 -1.5t-23.5 -0.5q-13 -6 -33 -7.5t-34 -9.5q0 -1 -2.5 -11t-5.5 -24t-5.5 -30t-2.5 -29q0 -20 3 -31.5
t3 -28.5q0 -44 -3.5 -89t-3.5 -76q0 -23 14 -38t35 -15q4 0 6 1q13 -1 24.5 -3.5t22.5 -2.5q4 0 7 0.5t7 1.5q35 -7 61 -7q28 0 51 8t44 10q15 16 15 29q0 10 -8 18.5t-13 11.5q-12 0 -27 -3t-23 -4q-4 1 -8 1h-9q-11 0 -23.5 -1t-25.5 -1q-23 0 -43 3.5t-34 3.5h-7
q-2 8 -2 47q0 20 0.5 36t1.5 29q10 0 20 0.5t18 0.5q7 0 12 -0.5t10 -1.5q7 2 20 3.5t27.5 3t29 3.5t24.5 5q2 5 6.5 15t4.5 21q0 15 -13 18t-34 3t-37.5 -2t-26.5 -4q-13 -1 -28.5 -1h-32.5zM344 534q-11 9 -27 15.5t-33 6.5h-8q-18 3 -32.5 6.5t-31 6t-39 4.5t-56.5 2
q-7 -2 -16 -12t-9 -25q0 -11 6 -21q35 -7 59.5 -7t46.5 -8h6q33 0 46.5 -7.5t13.5 -8.5q0 -8 -6 -22.5t-15 -29.5t-18.5 -28.5t-15.5 -19.5q-10 -20 -21.5 -35.5t-28.5 -40.5q4 -12 9 -23.5t22 -11.5q9 0 21 3q7 10 22.5 26.5t19.5 29.5l13 20l16 24t9.5 16l6.5 13.5t6 15.5
q7 9 13.5 21.5t12 25.5t8.5 24t3 19q0 10 -3 21zM676 503q-1 30 -2 56q-1 22 -1.5 41.5t-1.5 24.5q2 6 2 17v14t-2 19l-6 48q-8 23 -26 23q-23 0 -33 -14t-10 -25q0 -6 1 -15t2.5 -19t2.5 -19.5t1 -14.5q0 -8 -1 -11q0 -2 1 -12.5t1.5 -24.5t1.5 -27.5t1 -20.5
q0 -8 -0.5 -9.5t-5.5 -1.5q-9 0 -27 3.5t-28 3.5h-6q-6 1 -20 4t-31.5 5l-34.5 4t-28 2q-17 0 -24 -9.5t-7 -20.5q0 -14 5.5 -23t18.5 -13.5t34 -6t52 -1.5q3 0 4.5 0.5t3.5 0.5q22 -7 46.5 -8t48.5 -3q0 -8 0.5 -16.5t0.5 -17.5q0 -14 -1 -21t-5.5 -10t-13 -3.5t-24.5 -0.5
h-26.5t-15.5 1q-15 -3 -36 -4.5l-41 -3t-37.5 -2.5t-24.5 -2q-12 -15 -12 -31q0 -11 7 -20t23 -11q5 0 14.5 0.5t20 1.5t21 1.5t17.5 0.5h8q11 2 40 5t64 3h13.5t3.5 -11q0 -25 -5 -49.5t-5 -41.5q0 -14 11 -20.5t25 -6.5q20 0 29 15l7 44q2 11 3 20.5t1 16.5q0 8 -1 11
q2 6 3 16.5t1.5 21t1 18.5l0.5 8v24v15t-2 13q2 6 3 17t1 23q0 8 -0.5 16t-0.5 13z" />
    <glyph glyph-name="uniACC4" unicode="&#xacc4;" 
d="M725 272v34v13q0 15 -2 25q2 5 3 14t1 20q0 18 -2 38.5t-4 38.5q2 6 2 17v14t-2 19l-6 48q-8 23 -26 23q-23 0 -33 -14t-10 -25q0 -6 1 -15t2.5 -19t2.5 -19.5t1 -14.5q0 -8 -1 -11q0 -2 1 -12.5t1.5 -24.5t1.5 -27.5t1 -20.5v-10q0 -3 0.5 -7t0.5 -9q0 -8 -1 -20.5
t-1.5 -26t-1.5 -25t-1 -16.5q0 -8 0.5 -12t0.5 -11q0 -11 -1.5 -28.5l-3 -36.5t-3 -35.5t-1.5 -24.5q0 -30 35 -30q20 0 29 15l7 44q2 11 3 20.5t1 16.5q0 8 -1 11q2 5 2.5 18t1.5 28zM576 261q1 7 1 17v24q0 29 -4 38q2 5 2 11.5v11.5v9.5v4t-0.5 9.5t-1.5 27q0 15 -1 48
t-5 66.5t-12.5 58.5t-23.5 25q-16 0 -27 -13t-13 -22q0 -1 1.5 -13t3.5 -26.5t4 -26.5t3 -14q0 -3 1.5 -22t2.5 -40q-5 0 -10.5 0.5t-12.5 0.5q-9 0 -20 -0.5t-25 -1.5l-69 -5q-19 -11 -19 -30q0 -24 11 -30t27 -6q4 0 7.5 0.5t8.5 0.5l34 4q16 2 36.5 2.5t32.5 0.5v-83
q-6 -2 -14.5 -3t-18 -2.5t-18 -3t-13.5 -2.5h-9q-7 0 -21 -1.5t-27.5 -6t-23.5 -11.5t-10 -17q0 -14 4 -21t10.5 -11t13.5 -4.5t13 -0.5q24 0 39 2.5t27 5.5l23 5.5t25 2.5v-7q0 -20 -1.5 -34.5t-3 -27.5t-2.5 -25t-1 -27q0 -35 35 -35q9 0 16.5 3.5t12 14t7 29.5t2.5 50
q0 15 -2 18q1 7 2 20t1.5 26.5t1 24t0.5 12.5zM314 414q-11 9 -27 15.5t-33 6.5h-8q-18 3 -32.5 6.5t-31 6t-39 4.5t-56.5 2q-7 -2 -16 -12t-9 -25q0 -11 6 -21q35 -7 59.5 -7t46.5 -8h6q33 0 46.5 -7.5t13.5 -8.5q0 -8 -6 -22.5t-15 -29.5t-18.5 -28.5t-15.5 -19.5
q-10 -20 -21.5 -35.5t-28.5 -40.5q4 -12 9 -23.5t22 -11.5q9 0 21 3q7 10 22.5 26.5t19.5 29.5l13 20l16 24t9.5 16l6.5 13.5t6 15.5q7 9 13.5 21.5t12 25.5t8.5 24t3 19q0 10 -3 21z" />
    <glyph glyph-name="uniACC8" unicode="&#xacc8;" 
d="M725 412v24v15t-2 13q2 5 3 14t1 20q0 18 -2 38.5t-4 38.5q2 6 2 17v14t-2 19l-6 48q-8 23 -26 23q-23 0 -33 -14t-10 -25q0 -6 1 -15t2.5 -19t2.5 -19.5t1 -14.5q0 -8 -1 -11q0 -2 1 -12.5t1.5 -24.5t1.5 -27.5t1 -20.5v-10q0 -3 0.5 -7t0.5 -9q0 -8 -1 -20.5t-1.5 -26
t-1.5 -25t-1 -16.5q0 -7 0.5 -11t0.5 -9q0 -25 -5 -49.5t-5 -41.5q0 -14 11 -20.5t25 -6.5q20 0 29 15l7 44q2 11 3 20.5t1 16.5q0 8 -1 11q2 6 3 16.5t1.5 21t1 18.5zM576 381q1 7 1 17v24q0 29 -4 38q2 5 2 11.5v11.5v9.5v4t-0.5 9.5t-1.5 27q0 15 -1 48t-5 66.5
t-12.5 58.5t-23.5 25q-16 0 -27 -13t-13 -22q0 -1 1.5 -13t3.5 -26.5t4 -26.5t3 -14q0 -3 1.5 -22t2.5 -40q-5 0 -10.5 0.5t-12.5 0.5q-9 0 -20 -0.5t-25 -1.5l-69 -5q-19 -11 -19 -30q0 -24 11 -30t27 -6q4 0 7.5 0.5t8.5 0.5l34 4q16 2 36.5 2.5t32.5 0.5v-83
q-6 -2 -14.5 -3t-18 -2.5t-18 -3t-13.5 -2.5h-9q-7 0 -21 -1.5t-27.5 -6t-23.5 -11.5t-10 -17q0 -14 4 -21t10.5 -11t13.5 -4.5t13 -0.5q24 0 39 2.5t27 5.5l23 5.5t25 2.5v-4q0 -20 -4 -38.5t-4 -40.5q0 -33 35 -33q17 0 27.5 16.5t10.5 63.5q0 12 -2 15q3 17 3.5 37
t1.5 26zM314 534q-11 9 -27 15.5t-33 6.5h-8q-18 3 -32.5 6.5t-31 6t-39 4.5t-56.5 2q-7 -2 -16 -12t-9 -25q0 -11 6 -21q35 -7 59.5 -7t46.5 -8h6q33 0 46.5 -7.5t13.5 -8.5q0 -8 -6 -22.5t-15 -29.5t-18.5 -28.5t-15.5 -19.5q-10 -20 -21.5 -35.5t-28.5 -40.5
q4 -12 9 -23.5t22 -11.5q9 0 21 3q7 10 22.5 26.5t19.5 29.5l13 20l16 24t9.5 16l6.5 13.5t6 15.5q7 9 13.5 21.5t12 25.5t8.5 24t3 19q0 10 -3 21zM504 -42q15 16 15 29q0 10 -8 18.5t-13 11.5q-36 -4 -57 -7t-45 -3q-10 0 -23 0.5t-25.5 0.5t-23 0.5t-16.5 0.5
q-7 21 -6.5 39t-1.5 49v18q0 11 -1 24t-3 23q-11 6 -19 9.5t-16 3.5q-6 0 -11.5 -2t-10 -9t-7 -20.5t-2.5 -36.5q0 -31 2.5 -51.5t6.5 -46.5q-1 -5 -1 -15q0 -29 15 -48q8 -3 19.5 -4.5t20.5 -1.5q11 0 14 2q11 -1 25 -2t28 -1q30 0 51 1.5t37.5 3.5t29 5.5t26.5 8.5z" />
    <glyph glyph-name="uniACCC" unicode="&#xaccc;" 
d="M725 412v24v15t-2 13q2 5 3 14t1 20q0 18 -2 38.5t-4 38.5q2 6 2 17v14t-2 19l-6 48q-8 23 -26 23q-23 0 -33 -14t-10 -25q0 -6 1 -15t2.5 -19t2.5 -19.5t1 -14.5q0 -8 -1 -11q0 -2 1 -12.5t1.5 -24.5t1.5 -27.5t1 -20.5v-10q0 -3 0.5 -7t0.5 -9q0 -8 -1 -20.5t-1.5 -26
t-1.5 -25t-1 -16.5q0 -7 0.5 -11t0.5 -9q0 -25 -5 -49.5t-5 -41.5q0 -14 11 -20.5t25 -6.5q20 0 29 15l7 44q2 11 3 20.5t1 16.5q0 8 -1 11q2 6 3 16.5t1.5 21t1 18.5zM576 381q1 7 1 17v24q0 29 -4 38q2 5 2 11.5v11.5v9.5v4t-0.5 9.5t-1.5 27q0 15 -1 48t-5 66.5
t-12.5 58.5t-23.5 25q-16 0 -27 -13t-13 -22q0 -1 1.5 -13t3.5 -26.5t4 -26.5t3 -14q0 -3 1.5 -22t2.5 -40q-5 0 -10.5 0.5t-12.5 0.5q-9 0 -20 -0.5t-25 -1.5l-69 -5q-19 -11 -19 -30q0 -24 11 -30t27 -6q4 0 7.5 0.5t8.5 0.5l34 4q16 2 36.5 2.5t32.5 0.5v-83
q-6 -2 -14.5 -3t-18 -2.5t-18 -3t-13.5 -2.5h-9q-7 0 -21 -1.5t-27.5 -6t-23.5 -11.5t-10 -17q0 -14 4 -21t10.5 -11t13.5 -4.5t13 -0.5q24 0 39 2.5t27 5.5l23 5.5t25 2.5v-4q0 -20 -4 -38.5t-4 -40.5q0 -33 35 -33q17 0 27.5 16.5t10.5 63.5q0 12 -2 15q3 17 3.5 37
t1.5 26zM314 534q-11 9 -27 15.5t-33 6.5h-8q-18 3 -32.5 6.5t-31 6t-39 4.5t-56.5 2q-7 -2 -16 -12t-9 -25q0 -11 6 -21q35 -7 59.5 -7t46.5 -8h6q33 0 46.5 -7.5t13.5 -8.5q0 -8 -6 -22.5t-15 -29.5t-18.5 -28.5t-15.5 -19.5q-10 -20 -21.5 -35.5t-28.5 -40.5
q4 -12 9 -23.5t22 -11.5q9 0 21 3q7 10 22.5 26.5t19.5 29.5l13 20l16 24t9.5 16l6.5 13.5t6 15.5q7 9 13.5 21.5t12 25.5t8.5 24t3 19q0 10 -3 21zM582 -162q-6 3 -20 3q-20 0 -40 -3t-26 -3q-21 -3 -32.5 -4t-21.5 -1q-5 0 -9.5 0.5t-9.5 0.5q-6 -3 -34 -3q-23 0 -46 0.5
t-42 2.5q-22 1 -43 3q-1 3 -1 11q1 14 2 30t3 27l5 37q3 26 11 36q14 3 26.5 5t26 3.5t30.5 2.5t40 1h51q4 1 11.5 3.5t15.5 4.5t15 4t10 3q15 27 21 54t11 55q0 8 -4.5 26t-15.5 28q-21 5 -41.5 11t-28.5 6q-3 -1 -13 -1h-10t-12 1l-42 4q-10 6 -30.5 6.5t-30.5 3.5
q-9 -5 -13 -15t-4 -20q0 -15 12.5 -23t28.5 -11.5t30.5 -4t18.5 -0.5q2 -1 11 -3t25 -4l47 -7q0 -16 -5 -31.5t-11 -26.5q-7 -1 -17 -1h-24h-9q-10 0 -17 -1t-12 -3q-5 1 -16 1q-29 0 -51 -4.5t-50 -4.5h-8q-20 0 -32 -14t-12 -40q0 -6 3 -9l-9 -73q-5 -45 -7.5 -59
t-2.5 -12q0 -11 6 -21.5t14.5 -19t18.5 -13.5t18 -6q30 -2 59 -3.5t53 -2.5t39.5 -1h17.5q24 0 50.5 2.5t50.5 5.5t41.5 5.5t22.5 2.5q6 2 10.5 12t4.5 26q0 13 -8 21z" />
    <glyph glyph-name="uniACD5" unicode="&#xacd5;" 
d="M725 412v24v15t-2 13q2 5 3 14t1 20q0 18 -2 38.5t-4 38.5q2 6 2 17v14t-2 19l-6 48q-8 23 -26 23q-23 0 -33 -14t-10 -25q0 -6 1 -15t2.5 -19t2.5 -19.5t1 -14.5q0 -8 -1 -11q0 -2 1 -12.5t1.5 -24.5t1.5 -27.5t1 -20.5v-10q0 -3 0.5 -7t0.5 -9q0 -8 -1 -20.5t-1.5 -26
t-1.5 -25t-1 -16.5q0 -7 0.5 -11t0.5 -9q0 -25 -5 -49.5t-5 -41.5q0 -14 11 -20.5t25 -6.5q20 0 29 15l7 44q2 11 3 20.5t1 16.5q0 8 -1 11q2 6 3 16.5t1.5 21t1 18.5zM576 381q1 7 1 17v24q0 29 -4 38q2 5 2 11.5v11.5v9.5v4t-0.5 9.5t-1.5 27q0 15 -1 48t-5 66.5
t-12.5 58.5t-23.5 25q-16 0 -27 -13t-13 -22q0 -1 1.5 -13t3.5 -26.5t4 -26.5t3 -14q0 -3 1.5 -22t2.5 -40q-5 0 -10.5 0.5t-12.5 0.5q-9 0 -20 -0.5t-25 -1.5l-69 -5q-19 -11 -19 -30q0 -24 11 -30t27 -6q4 0 7.5 0.5t8.5 0.5l34 4q16 2 36.5 2.5t32.5 0.5v-83
q-6 -2 -14.5 -3t-18 -2.5t-18 -3t-13.5 -2.5h-9q-7 0 -21 -1.5t-27.5 -6t-23.5 -11.5t-10 -17q0 -14 4 -21t10.5 -11t13.5 -4.5t13 -0.5q24 0 39 2.5t27 5.5l23 5.5t25 2.5v-4q0 -20 -4 -38.5t-4 -40.5q0 -33 35 -33q17 0 27.5 16.5t10.5 63.5q0 12 -2 15q3 17 3.5 37
t1.5 26zM314 534q-11 9 -27 15.5t-33 6.5h-8q-18 3 -32.5 6.5t-31 6t-39 4.5t-56.5 2q-7 -2 -16 -12t-9 -25q0 -11 6 -21q35 -7 59.5 -7t46.5 -8h6q33 0 46.5 -7.5t13.5 -8.5q0 -8 -6 -22.5t-15 -29.5t-18.5 -28.5t-15.5 -19.5q-10 -20 -21.5 -35.5t-28.5 -40.5
q4 -12 9 -23.5t22 -11.5q9 0 21 3q7 10 22.5 26.5t19.5 29.5l13 20l16 24t9.5 16l6.5 13.5t6 15.5q7 9 13.5 21.5t12 25.5t8.5 24t3 19q0 10 -3 21zM558 -4q0 -1 -1.5 15t-3 35.5t-3 35.5t-1.5 15q1 3 1 9q0 32 -10.5 52t-28.5 20q-10 0 -18.5 -7.5t-11.5 -13.5
q0 -17 1.5 -28.5l3.5 -26t3.5 -34t1.5 -50.5l-45 -3q-16 -2 -26 -3t-14 -3h-11q-9 0 -21.5 -1.5l-24.5 -3t-21.5 -3t-10.5 -1.5q-2 0 -4 0.5t-5 0.5q-5 0 -13.5 -0.5t-17 -1.5t-15 -2t-8.5 -1q-1 5 -1 35v14q0 14 -2 22q0 3 0.5 11.5t1.5 18.5t1.5 19t0.5 14q0 14 -9 20.5
t-15 6.5q-29 0 -36 -26t-7 -86q0 -39 4 -51q-1 -5 -1 -11v-14q0 -11 0.5 -26t0.5 -27v-18t-1 -12q0 -10 3 -53l4 -60q-1 0 16 -1t39 -2.5t42.5 -3.5t26.5 -2q5 -1 12 -1h17t22 0.5t26 0.5h79q10 -3 19 -3q23 0 39 13.5t16 34.5q0 3 -2 7q2 12 4.5 28.5t2.5 31.5q0 12 -3 21
q2 9 2.5 19t0.5 21v38v11t1 10zM492 -45q0 -29 -0.5 -48t-2 -33.5t-3 -25t-3.5 -21.5q-10 -2 -40 -2q-41 0 -69 1t-38 4q-5 -1 -18 -1q-15 0 -31.5 1.5l-27.5 2.5q0 6 -1 17t-1 19v5q0 4 -0.5 12.5t-1 18t-0.5 17.5v13l113 10q7 4 57 7z" />
    <glyph glyph-name="uniACD7" unicode="&#xacd7;" 
d="M725 412v24v15t-2 13q2 5 3 14t1 20q0 18 -2 38.5t-4 38.5q2 6 2 17v14t-2 19l-6 48q-8 23 -26 23q-23 0 -33 -14t-10 -25q0 -6 1 -15t2.5 -19t2.5 -19.5t1 -14.5q0 -8 -1 -11q0 -2 1 -12.5t1.5 -24.5t1.5 -27.5t1 -20.5v-10q0 -3 0.5 -7t0.5 -9q0 -8 -1 -20.5t-1.5 -26
t-1.5 -25t-1 -16.5q0 -7 0.5 -11t0.5 -9q0 -25 -5 -49.5t-5 -41.5q0 -14 11 -20.5t25 -6.5q20 0 29 15l7 44q2 11 3 20.5t1 16.5q0 8 -1 11q2 6 3 16.5t1.5 21t1 18.5zM576 381q1 7 1 17v24q0 29 -4 38q2 5 2 11.5v11.5v9.5v4t-0.5 9.5t-1.5 27q0 15 -1 48t-5 66.5
t-12.5 58.5t-23.5 25q-16 0 -27 -13t-13 -22q0 -1 1.5 -13t3.5 -26.5t4 -26.5t3 -14q0 -3 1.5 -22t2.5 -40q-5 0 -10.5 0.5t-12.5 0.5q-9 0 -20 -0.5t-25 -1.5l-69 -5q-19 -11 -19 -30q0 -24 11 -30t27 -6q4 0 7.5 0.5t8.5 0.5l34 4q16 2 36.5 2.5t32.5 0.5v-83
q-6 -2 -14.5 -3t-18 -2.5t-18 -3t-13.5 -2.5h-9q-7 0 -21 -1.5t-27.5 -6t-23.5 -11.5t-10 -17q0 -14 4 -21t10.5 -11t13.5 -4.5t13 -0.5q24 0 39 2.5t27 5.5l23 5.5t25 2.5v-4q0 -20 -4 -38.5t-4 -40.5q0 -33 35 -33q17 0 27.5 16.5t10.5 63.5q0 12 -2 15q3 17 3.5 37
t1.5 26zM314 534q-11 9 -27 15.5t-33 6.5h-8q-18 3 -32.5 6.5t-31 6t-39 4.5t-56.5 2q-7 -2 -16 -12t-9 -25q0 -11 6 -21q35 -7 59.5 -7t46.5 -8h6q33 0 46.5 -7.5t13.5 -8.5q0 -8 -6 -22.5t-15 -29.5t-18.5 -28.5t-15.5 -19.5q-10 -20 -21.5 -35.5t-28.5 -40.5
q4 -12 9 -23.5t22 -11.5q9 0 21 3q7 10 22.5 26.5t19.5 29.5l13 20l16 24t9.5 16l6.5 13.5t6 15.5q7 9 13.5 21.5t12 25.5t8.5 24t3 19q0 10 -3 21zM543 -21q-9 19 -18.5 28t-19 15.5l-20.5 13.5t-24 24q-14 10 -27 17.5t-22 17.5q5 6 15.5 17t11.5 24q-10 31 -43 31
q-9 0 -13 -4l-28 -32q-15 -18 -21.5 -24.5l-9.5 -9.5t-6.5 -6t-12.5 -15l-19 -25q-7 -9 -17.5 -20l-21.5 -23.5t-19.5 -26t-11.5 -27.5q0 -2 3.5 -7t9 -10t12.5 -9t14 -4q9 0 17.5 9.5t17.5 22.5t19 26t23 20q1 2 6 9t11 14.5t12 14t9 8.5l19 -18q13 -12 21 -15
q19 -15 33.5 -29l26.5 -25.5t22 -19t21 -9.5q1 0 6 4t11 10t10.5 12.5t4.5 12.5q0 2 -2 8z" />
    <glyph glyph-name="uniACE0" unicode="&#xace0;" 
d="M552 461q5 18 5 28q0 20 -16.5 31.5t-37.5 11.5q-4 0 -8 -2l-24 4.5t-25 2.5q-9 0 -18 -3q-6 2 -12 2h-11q-13 0 -23.5 -1.5t-21.5 -1.5q-7 0 -11 1q-42 -5 -57 -15t-15 -26q0 -10 8 -18.5t13 -11.5q9 0 19.5 2.5t25.5 2.5q3 0 6.5 -0.5t7.5 -0.5q7 2 21 3t24 1h8
q3 0 6.5 0.5t7.5 0.5q8 0 18.5 -1t20 -2.5t16 -3.5t6.5 -5q0 -8 -1.5 -21.5t-3.5 -24.5q0 -3 0.5 -6t0.5 -5q0 -8 -2 -13.5t-4.5 -10.5t-4.5 -11.5t-2 -16.5q0 -11 4 -17.5t9.5 -9.5t12 -4t11.5 -1q13 0 22.5 13.5t15 33t8 41.5t2.5 40q0 4 -0.5 7t-0.5 7zM706 86
q14 7 14 27t-15.5 29t-43 13t-66.5 4t-86 2l-105 4q-2 4 -2 9.5v11.5q0 9 0.5 18.5t0.5 16.5v6q1 5 1 15q0 26 -5.5 47.5t-22.5 21.5q-16 0 -25 -5t-13.5 -12.5t-5.5 -17.5t-1 -20t1 -19t3 -14v-5q0 -9 1 -16.5t1 -18.5q0 -9 -5.5 -14t-24 -7.5t-53.5 -2.5h-94h-13
q-26 0 -36.5 -8t-10.5 -28q0 -17 12.5 -24t51.5 -7q16 0 26 1.5t15 3.5q12 -3 29 -3q12 0 23 1t16 1t10 -0.5t16 -0.5q29 0 56 2.5t32 4.5q3 -1 20.5 -2t37.5 -1.5t36.5 -1t17.5 -0.5h17q26 0 48.5 -2.5t37.5 -2.5h6.5t5.5 1q4 -1 14 -2.5t22 -2.5l23.5 -2t19.5 -1
q10 0 13 1z" />
    <glyph glyph-name="uniACE1" unicode="&#xace1;" 
d="M552 581q5 18 5 28q0 20 -16.5 31.5t-37.5 11.5q-4 0 -8 -2l-24 4.5t-25 2.5q-9 0 -18 -3q-6 2 -12 2h-11q-13 0 -23.5 -1.5t-21.5 -1.5q-7 0 -11 1q-42 -5 -57 -15t-15 -26q0 -10 8 -18.5t13 -11.5q9 0 19.5 2.5t25.5 2.5q3 0 6.5 -0.5t7.5 -0.5q7 2 21 3t24 1h8
q3 0 6.5 0.5t7.5 0.5q8 0 18.5 -1t20 -2.5t16 -3.5t6.5 -5q0 -8 -1.5 -21.5t-3.5 -24.5q0 -3 0.5 -6t0.5 -5q0 -8 -2 -13.5t-4.5 -10.5t-4.5 -11.5t-2 -16.5q0 -11 4 -17.5t9.5 -9.5t12 -4t11.5 -1q13 0 22.5 13.5t15 33t8 41.5t2.5 40q0 4 -0.5 7t-0.5 7zM706 226
q14 7 14 27t-15.5 29t-43 13t-66.5 4t-86 2l-105 4q-2 4 -2 9.5v11.5q0 9 0.5 18.5t0.5 16.5v6q1 5 1 15q0 26 -5.5 47.5t-22.5 21.5q-16 0 -25 -5t-13.5 -12.5t-5.5 -17.5t-1 -20t1 -19t3 -14v-5q0 -9 1 -16.5t1 -18.5q0 -9 -5.5 -14t-24 -7.5t-53.5 -2.5h-94h-13
q-26 0 -36.5 -8t-10.5 -28q0 -17 12.5 -24t51.5 -7q16 0 26 1.5t15 3.5q12 -3 29 -3q12 0 23 1t16 1t10 -0.5t16 -0.5q29 0 56 2.5t32 4.5q3 -1 20.5 -2t37.5 -1.5t36.5 -1t17.5 -0.5h17q26 0 48.5 -2.5t37.5 -2.5h6.5t5.5 1q4 -1 14 -2.5t22 -2.5l23.5 -2t19.5 -1
q10 0 13 1zM544 91q4 13 4 25q0 21 -16 33.5t-39 12.5q-4 0 -8 -2l-24 4.5t-25 2.5q-9 0 -18 -3q-6 2 -12 2h-11q-13 0 -23.5 -1.5t-21.5 -1.5q-7 0 -11 1q-42 -5 -57 -15t-15 -26q0 -10 8 -18.5t13 -11.5q9 0 19.5 2.5t25.5 2.5q3 0 6.5 -0.5t7.5 -0.5q7 2 21 3t24 1h8
q3 0 6.5 0.5t7.5 0.5q9 0 19.5 -1t19.5 -2.5t15.5 -3.5t6.5 -5v-13t-2 -19l-5 -44v-8q0 -20 -8.5 -44.5t-8.5 -50.5q17 -13 34 -13q11 0 17 2.5t9.5 8.5t6 16t7.5 25q6 17 9.5 31t6 28.5t3.5 30t1 34.5q0 5 -0.5 9t-0.5 8z" />
    <glyph glyph-name="uniACE4" unicode="&#xace4;" 
d="M552 581q5 18 5 28q0 20 -16.5 31.5t-37.5 11.5q-4 0 -8 -2l-24 4.5t-25 2.5q-9 0 -18 -3q-6 2 -12 2h-11q-13 0 -23.5 -1.5t-21.5 -1.5q-7 0 -11 1q-42 -5 -57 -15t-15 -26q0 -10 8 -18.5t13 -11.5q9 0 19.5 2.5t25.5 2.5q3 0 6.5 -0.5t7.5 -0.5q7 2 21 3t24 1h8
q3 0 6.5 0.5t7.5 0.5q8 0 18.5 -1t20 -2.5t16 -3.5t6.5 -5q0 -8 -1.5 -21.5t-3.5 -24.5q0 -3 0.5 -6t0.5 -5q0 -8 -2 -13.5t-4.5 -10.5t-4.5 -11.5t-2 -16.5q0 -11 4 -17.5t9.5 -9.5t12 -4t11.5 -1q13 0 22.5 13.5t15 33t8 41.5t2.5 40q0 4 -0.5 7t-0.5 7zM706 226
q14 7 14 27t-15.5 29t-43 13t-66.5 4t-86 2l-105 4q-2 4 -2 9.5v11.5q0 9 0.5 18.5t0.5 16.5v6q1 5 1 15q0 26 -5.5 47.5t-22.5 21.5q-16 0 -25 -5t-13.5 -12.5t-5.5 -17.5t-1 -20t1 -19t3 -14v-5q0 -9 1 -16.5t1 -18.5q0 -9 -5.5 -14t-24 -7.5t-53.5 -2.5h-94h-13
q-26 0 -36.5 -8t-10.5 -28q0 -17 12.5 -24t51.5 -7q16 0 26 1.5t15 3.5q12 -3 29 -3q12 0 23 1t16 1t10 -0.5t16 -0.5q29 0 56 2.5t32 4.5q3 -1 20.5 -2t37.5 -1.5t36.5 -1t17.5 -0.5h17q26 0 48.5 -2.5t37.5 -2.5h6.5t5.5 1q4 -1 14 -2.5t22 -2.5l23.5 -2t19.5 -1
q10 0 13 1zM544 -42q15 16 15 29q0 10 -8 18.5t-13 11.5q-36 -4 -57 -7t-45 -3q-10 0 -23 0.5t-25.5 0.5t-23 0.5t-16.5 0.5q-7 21 -6.5 39t-1.5 49v18q0 11 -1 24t-3 23q-11 6 -19 9.5t-16 3.5q-6 0 -11.5 -2t-10 -9t-7 -20.5t-2.5 -36.5q0 -31 2.5 -51.5t6.5 -46.5
q-1 -5 -1 -15q0 -29 15 -48q8 -3 19.5 -4.5t20.5 -1.5q11 0 14 2q11 -1 25 -2t28 -1q30 0 51 1.5t37.5 3.5t29 5.5t26.5 8.5z" />
    <glyph glyph-name="uniACE7" unicode="&#xace7;" 
d="M552 581q5 18 5 28q0 20 -16.5 31.5t-37.5 11.5q-4 0 -8 -2l-24 4.5t-25 2.5q-9 0 -18 -3q-6 2 -12 2h-11q-13 0 -23.5 -1.5t-21.5 -1.5q-7 0 -11 1q-42 -5 -57 -15t-15 -26q0 -10 8 -18.5t13 -11.5q9 0 19.5 2.5t25.5 2.5q3 0 6.5 -0.5t7.5 -0.5q7 2 21 3t24 1h8
q3 0 6.5 0.5t7.5 0.5q8 0 18.5 -1t20 -2.5t16 -3.5t6.5 -5q0 -8 -1.5 -21.5t-3.5 -24.5q0 -3 0.5 -6t0.5 -5q0 -8 -2 -13.5t-4.5 -10.5t-4.5 -11.5t-2 -16.5q0 -11 4 -17.5t9.5 -9.5t12 -4t11.5 -1q13 0 22.5 13.5t15 33t8 41.5t2.5 40q0 4 -0.5 7t-0.5 7zM706 226
q14 7 14 27t-15.5 29t-43 13t-66.5 4t-86 2l-105 4q-2 4 -2 9.5v11.5q0 9 0.5 18.5t0.5 16.5v6q1 5 1 15q0 26 -5.5 47.5t-22.5 21.5q-16 0 -25 -5t-13.5 -12.5t-5.5 -17.5t-1 -20t1 -19t3 -14v-5q0 -9 1 -16.5t1 -18.5q0 -9 -5.5 -14t-24 -7.5t-53.5 -2.5h-94h-13
q-26 0 -36.5 -8t-10.5 -28q0 -17 12.5 -24t51.5 -7q16 0 26 1.5t15 3.5q12 -3 29 -3q12 0 23 1t16 1t10 -0.5t16 -0.5q29 0 56 2.5t32 4.5q3 -1 20.5 -2t37.5 -1.5t36.5 -1t17.5 -0.5h17q26 0 48.5 -2.5t37.5 -2.5h6.5t5.5 1q4 -1 14 -2.5t22 -2.5l23.5 -2t19.5 -1
q10 0 13 1zM581 -173q17 17 17 29q0 10 -7.5 18.5t-12.5 12.5q-12 0 -27 -2l-23 -3q-19 3 -36 3t-38 1l-48 4q-18 1 -26 3t-11 7.5t-2 17t1 31.5q0 41 4 53q-3 15 -3 28q0 17 3 30t5 24q27 4 45 5.5t40 2.5q11 3 23 4t22 3.5t16.5 9t6.5 21.5q0 38 -23 39q-11 -3 -30 -6.5
t-38.5 -7.5t-37.5 -6.5t-28 -2.5h-26h-16t-12 -1l-13 -49q-3 -10 -3.5 -18.5t-1.5 -15.5q0 -14 5 -22q0 -11 0.5 -20.5t0.5 -17.5q0 -9 -0.5 -16.5t-0.5 -14.5l-3 -64q-4 -11 -4 -21q0 -26 17.5 -40.5t42.5 -14.5q2 0 2.5 0.5t2.5 0.5q14 -2 33 -6t34 -4q6 0 14 2
q11 -3 22 -4t23 -1q27 0 51 2.5t40 5.5z" />
    <glyph glyph-name="uniACE8" unicode="&#xace8;" 
d="M552 581q5 18 5 28q0 20 -16.5 31.5t-37.5 11.5q-4 0 -8 -2l-24 4.5t-25 2.5q-9 0 -18 -3q-6 2 -12 2h-11q-13 0 -23.5 -1.5t-21.5 -1.5q-7 0 -11 1q-42 -5 -57 -15t-15 -26q0 -10 8 -18.5t13 -11.5q9 0 19.5 2.5t25.5 2.5q3 0 6.5 -0.5t7.5 -0.5q7 2 21 3t24 1h8
q3 0 6.5 0.5t7.5 0.5q8 0 18.5 -1t20 -2.5t16 -3.5t6.5 -5q0 -8 -1.5 -21.5t-3.5 -24.5q0 -3 0.5 -6t0.5 -5q0 -8 -2 -13.5t-4.5 -10.5t-4.5 -11.5t-2 -16.5q0 -11 4 -17.5t9.5 -9.5t12 -4t11.5 -1q13 0 22.5 13.5t15 33t8 41.5t2.5 40q0 4 -0.5 7t-0.5 7zM706 226
q14 7 14 27t-15.5 29t-43 13t-66.5 4t-86 2l-105 4q-2 4 -2 9.5v11.5q0 9 0.5 18.5t0.5 16.5v6q1 5 1 15q0 26 -5.5 47.5t-22.5 21.5q-16 0 -25 -5t-13.5 -12.5t-5.5 -17.5t-1 -20t1 -19t3 -14v-5q0 -9 1 -16.5t1 -18.5q0 -9 -5.5 -14t-24 -7.5t-53.5 -2.5h-94h-13
q-26 0 -36.5 -8t-10.5 -28q0 -17 12.5 -24t51.5 -7q16 0 26 1.5t15 3.5q12 -3 29 -3q12 0 23 1t16 1t10 -0.5t16 -0.5q29 0 56 2.5t32 4.5q3 -1 20.5 -2t37.5 -1.5t36.5 -1t17.5 -0.5h17q26 0 48.5 -2.5t37.5 -2.5h6.5t5.5 1q4 -1 14 -2.5t22 -2.5l23.5 -2t19.5 -1
q10 0 13 1zM622 -162q-6 3 -20 3q-20 0 -40 -3t-26 -3q-21 -3 -32.5 -4t-21.5 -1q-5 0 -9.5 0.5t-9.5 0.5q-6 -3 -34 -3q-23 0 -46 0.5t-42 2.5q-22 1 -43 3q-2 9 -3 17.5t-1 17.5q0 3 0.5 6.5t0.5 6.5l6 73q13 3 25 5t25.5 3.5t30 2.5t39.5 1h51q4 1 11.5 3.5t15.5 4.5
t15 4t10 3q15 27 21 49t11 50q0 8 -4.5 26t-15.5 28q-21 5 -41.5 11t-28.5 6q-2 -1 -9 -1q-11 0 -28 2t-30 3q-4 2 -15.5 3.5t-25 2.5t-25 2t-15.5 2q-9 -5 -13 -15t-4 -20q0 -16 14.5 -24t33.5 -11.5t37 -3.5h25q20 -3 36 -7q14 -3 25.5 -6t11.5 -4q0 -24 -8.5 -32.5
t-21 -10.5t-27.5 -1.5t-28 -5.5q-5 1 -16 1q-30 0 -52 -4.5t-52 -4.5h-8q-43 0 -43 -51q0 -8 4 -12q0 -2 -1.5 -21t-2.5 -41t-2.5 -40.5t-1.5 -19.5q0 -11 4.5 -19.5t11.5 -23.5q17 -9 27 -13.5t21.5 -6t27.5 -1t46 -0.5q40 -1 57 -2t24 -1.5t10.5 -1t15.5 -0.5
q23 0 46.5 2.5t43.5 5.5t35 5.5t21 2.5q6 2 10.5 12t4.5 26q0 13 -8 21z" />
    <glyph glyph-name="uniACEA" unicode="&#xacea;" 
d="M552 581q5 18 5 28q0 20 -16.5 31.5t-37.5 11.5q-4 0 -8 -2l-24 4.5t-25 2.5q-9 0 -18 -3q-6 2 -12 2h-11q-13 0 -23.5 -1.5t-21.5 -1.5q-7 0 -11 1q-42 -5 -57 -15t-15 -26q0 -10 8 -18.5t13 -11.5q9 0 19.5 2.5t25.5 2.5q3 0 6.5 -0.5t7.5 -0.5q7 2 21 3t24 1h8
q3 0 6.5 0.5t7.5 0.5q8 0 18.5 -1t20 -2.5t16 -3.5t6.5 -5q0 -8 -1.5 -21.5t-3.5 -24.5q0 -3 0.5 -6t0.5 -5q0 -8 -2 -13.5t-4.5 -10.5t-4.5 -11.5t-2 -16.5q0 -11 4 -17.5t9.5 -9.5t12 -4t11.5 -1q13 0 22.5 13.5t15 33t8 41.5t2.5 40q0 4 -0.5 7t-0.5 7zM706 226
q14 7 14 27t-15.5 29t-43 13t-66.5 4t-86 2l-105 4q-2 4 -2 9.5v11.5q0 9 0.5 18.5t0.5 16.5v6q1 5 1 15q0 26 -5.5 47.5t-22.5 21.5q-16 0 -25 -5t-13.5 -12.5t-5.5 -17.5t-1 -20t1 -19t3 -14v-5q0 -9 1 -16.5t1 -18.5q0 -9 -5.5 -14t-24 -7.5t-53.5 -2.5h-94h-13
q-26 0 -36.5 -8t-10.5 -28q0 -17 12.5 -24t51.5 -7q16 0 26 1.5t15 3.5q12 -3 29 -3q12 0 23 1t16 1t10 -0.5t16 -0.5q29 0 56 2.5t32 4.5q3 -1 20.5 -2t37.5 -1.5t36.5 -1t17.5 -0.5h17q26 0 48.5 -2.5t37.5 -2.5h6.5t5.5 1q4 -1 14 -2.5t22 -2.5l23.5 -2t19.5 -1
q10 0 13 1zM693 -34q-1 9 -1 14v6v40q3 12 3 24q0 25 -11 45q-12 3 -20 3.5t-16 0.5t-17 0.5t-22 2.5q-15 3 -20.5 4t-8.5 1.5t-6.5 0.5h-13.5h-34h-13h-14t-11 -1q-4 -7 -11 -25t-7 -36q0 -13 -2 -30.5t-6 -26.5q0 -22 -3.5 -42t-3.5 -43v-15t6 -13t20.5 -9.5t43.5 -3.5h8
t8 1q7 -2 14.5 -3t16.5 -1q17 0 49 4.5t64 14.5q3 8 5.5 30.5t2.5 47.5v9zM415 -208q9 3 9 22q0 23 -12 37q-29 0 -49 -4l-40.5 -8.5t-47.5 -8.5t-70 -4q-5 0 -7 4.5t-3 11t-1 14v12.5q0 4 0.5 7.5t0.5 6.5l6 73q26 5 56.5 8.5t47.5 3.5h17q4 1 11.5 3.5t15.5 4.5t15 4t10 3
q15 27 21 49t11 50q0 8 -4.5 26t-15.5 28q-21 5 -41.5 11t-28.5 6q-2 -1 -8 -1q-10 0 -23 2t-26 3q-4 2 -15.5 3.5t-25 2.5t-25 2t-15.5 2q-9 -5 -13 -15t-4 -20q0 -16 14.5 -24t33.5 -11.5t37 -3.5h25l9.5 -2t21.5 -5t22 -6t10 -4q0 -14 -5.5 -24t-10.5 -21q-33 -2 -55 -5
t-51 -3q-10 -5 -33 -5h-8q-43 0 -43 -51q0 -8 4 -12q0 -2 -1.5 -22t-3 -43.5t-2.5 -43.5l-1 -20v-8q0 -9 2 -19.5t7 -21.5q23 -13 39 -13.5t31 -0.5h56.5t37.5 1.5t29 5t31 9.5q42 14 58 14zM629 -10q1 -5 1 -9.5v-8.5q0 -11 -1.5 -18.5l-3.5 -17.5q-9 -1 -14 -2t-9 -2
t-8.5 -2t-12.5 -1q-2 0 -5 0.5t-6 0.5q-4 0 -7 -0.5t-6 -0.5q-8 0 -16 0.5t-20 1.5q1 10 2 25t2.5 31.5t4 32.5t7.5 27q18 1 35 0q14 -1 28.5 -3t22.5 -6q1 -9 4 -18t3 -19q0 -7 -1 -11z" />
    <glyph glyph-name="uniACEC" unicode="&#xacec;" 
d="M552 581q5 18 5 28q0 20 -16.5 31.5t-37.5 11.5q-4 0 -8 -2l-24 4.5t-25 2.5q-9 0 -18 -3q-6 2 -12 2h-11q-13 0 -23.5 -1.5t-21.5 -1.5q-7 0 -11 1q-42 -5 -57 -15t-15 -26q0 -10 8 -18.5t13 -11.5q9 0 19.5 2.5t25.5 2.5q3 0 6.5 -0.5t7.5 -0.5q7 2 21 3t24 1h8
q3 0 6.5 0.5t7.5 0.5q8 0 18.5 -1t20 -2.5t16 -3.5t6.5 -5q0 -8 -1.5 -21.5t-3.5 -24.5q0 -3 0.5 -6t0.5 -5q0 -8 -2 -13.5t-4.5 -10.5t-4.5 -11.5t-2 -16.5q0 -11 4 -17.5t9.5 -9.5t12 -4t11.5 -1q13 0 22.5 13.5t15 33t8 41.5t2.5 40q0 4 -0.5 7t-0.5 7zM706 226
q14 7 14 27t-15.5 29t-43 13t-66.5 4t-86 2l-105 4q-2 4 -2 9.5v11.5q0 9 0.5 18.5t0.5 16.5v6q1 5 1 15q0 26 -5.5 47.5t-22.5 21.5q-16 0 -25 -5t-13.5 -12.5t-5.5 -17.5t-1 -20t1 -19t3 -14v-5q0 -9 1 -16.5t1 -18.5q0 -9 -5.5 -14t-24 -7.5t-53.5 -2.5h-94h-13
q-26 0 -36.5 -8t-10.5 -28q0 -17 12.5 -24t51.5 -7q16 0 26 1.5t15 3.5q12 -3 29 -3q12 0 23 1t16 1t10 -0.5t16 -0.5q29 0 56 2.5t32 4.5q3 -1 20.5 -2t37.5 -1.5t36.5 -1t17.5 -0.5h17q26 0 48.5 -2.5t37.5 -2.5h6.5t5.5 1q4 -1 14 -2.5t22 -2.5l23.5 -2t19.5 -1
q10 0 13 1zM717 -90q-7 17 -21 31t-23 18l-13.5 13.5t-20.5 22.5q-16 8 -21.5 13.5t-16.5 15.5q1 1 6 11t10.5 22.5t10 24.5t4.5 18q0 7 -5 11.5t-11 7t-12 3.5t-9 1q-24 0 -27 -10l-23 -49q-13 -28 -18.5 -37.5t-8 -13.5t-5 -7.5t-9.5 -19.5q-10 -22 -14.5 -31l-8.5 -16.5
l-10.5 -20t-20.5 -42.5q-7 -14 -9.5 -25.5t-2.5 -19.5q1 -3 12 -12.5t23 -9.5q16 0 21 12t19 37v2q0 5 4 14.5t9 19t10 17t7 9.5q1 3 4.5 9.5l7.5 13.5t7.5 14l5.5 11q15 -12 16.5 -15t8.5 -5q17 -10 26.5 -23t19.5 -19q5 -3 10 -9.5l10 -13t11 -11.5t12 -6l24 13
q13 7 13 19q0 4 -2 12zM406 81q0 8 -4.5 26t-15.5 28q-21 5 -41.5 11t-28.5 6q-2 -1 -8 -1q-10 0 -23 2t-26 3q-4 2 -15.5 3.5t-25 2.5t-25 2t-15.5 2q-9 -5 -13 -15t-4 -20q0 -16 14.5 -24t33.5 -11.5t37 -3.5h25l9.5 -2t21.5 -5t22 -6t10 -4q0 -14 -5.5 -24t-10.5 -21
q-33 -2 -55 -5t-51 -3q-10 -5 -33 -5h-8q-43 0 -43 -51q0 -8 4 -12q0 -2 -1.5 -22t-3 -43.5t-2.5 -43.5l-1 -20v-8q0 -9 2 -19.5t7 -21.5q23 -13 39 -13.5t31 -0.5h50t31 1t24 3.5l28 6.5t28.5 5.5t18.5 3.5t10 8t3 19t-5.5 22.5t-16.5 9.5q-17 0 -32 -2.5l-30.5 -5t-33 -5
t-39.5 -2.5h-27t-14 1q-2 9 -3 19.5t-1 21.5q0 4 0.5 7.5t0.5 6.5l6 73q26 5 56.5 8.5t47.5 3.5h17q4 1 11.5 3.5t15.5 4.5t15 4t10 3q15 27 21 49t11 50z" />
    <glyph glyph-name="uniACEF" unicode="&#xacef;" 
d="M552 581q5 18 5 28q0 20 -16.5 31.5t-37.5 11.5q-4 0 -8 -2l-24 4.5t-25 2.5q-9 0 -18 -3q-6 2 -12 2h-11q-13 0 -23.5 -1.5t-21.5 -1.5q-7 0 -11 1q-42 -5 -57 -15t-15 -26q0 -10 8 -18.5t13 -11.5q9 0 19.5 2.5t25.5 2.5q3 0 6.5 -0.5t7.5 -0.5q7 2 21 3t24 1h8
q3 0 6.5 0.5t7.5 0.5q8 0 18.5 -1t20 -2.5t16 -3.5t6.5 -5q0 -8 -1.5 -21.5t-3.5 -24.5q0 -3 0.5 -6t0.5 -5q0 -8 -2 -13.5t-4.5 -10.5t-4.5 -11.5t-2 -16.5q0 -11 4 -17.5t9.5 -9.5t12 -4t11.5 -1q13 0 22.5 13.5t15 33t8 41.5t2.5 40q0 4 -0.5 7t-0.5 7zM706 226
q14 7 14 27t-15.5 29t-43 13t-66.5 4t-86 2l-105 4q-2 4 -2 9.5v11.5q0 9 0.5 18.5t0.5 16.5v6q1 5 1 15q0 26 -5.5 47.5t-22.5 21.5q-16 0 -25 -5t-13.5 -12.5t-5.5 -17.5t-1 -20t1 -19t3 -14v-5q0 -9 1 -16.5t1 -18.5q0 -9 -5.5 -14t-24 -7.5t-53.5 -2.5h-94h-13
q-26 0 -36.5 -8t-10.5 -28q0 -17 12.5 -24t51.5 -7q16 0 26 1.5t15 3.5q12 -3 29 -3q12 0 23 1t16 1t10 -0.5t16 -0.5q29 0 56 2.5t32 4.5q3 -1 20.5 -2t37.5 -1.5t36.5 -1t17.5 -0.5h17q26 0 48.5 -2.5t37.5 -2.5h6.5t5.5 1q4 -1 14 -2.5t22 -2.5l23.5 -2t19.5 -1
q10 0 13 1zM678 106q-2 7 -12.5 18t-24 22t-26.5 20.5t-20 13.5q-15 9 -22.5 13t-11 5.5t-5.5 1t-6 -0.5q-14 0 -21.5 -13t-7.5 -27q0 -11 6 -17t15 -11l18.5 -10t16.5 -15l36 -23q14 -9 22.5 -14t10.5 -10q13 7 23 18t10 22q0 5 -1 7zM732 18q-6 4 -16 8t-21 7t-22.5 4.5
t-20.5 1.5h-9q-15 3 -21 4.5t-13 2t-20 1t-41 2.5q-19 1 -34.5 3.5t-28.5 2.5q-37 0 -52 -6.5t-15 -33.5q0 -11 6 -21l44 -7l27.5 -3t17 -1h16.5h25h10q12 0 21 -1t15 -3h4q13 0 32.5 -5t42.5 -5q9 0 18.5 0.5t17.5 4.5t13 12.5t5 24.5q0 2 -0.5 3.5t-0.5 3.5zM678 -140
q-4 6 -6.5 21.5t-7.5 24.5q0 4 -6.5 10t-15 12.5t-18.5 13l-18 11.5q-23 -1 -42.5 -2t-35 -8.5t-28.5 -24.5t-22 -50q3 -18 4.5 -32.5t8.5 -26.5t21.5 -23t42.5 -22q1 -3 8 -3q4 0 11 1.5t14.5 4t13 4l5.5 1.5h1q4 1 11.5 5.5t15.5 10.5t15.5 12.5t11.5 11.5q9 11 9.5 20
t6.5 28zM396 81q0 8 -4.5 26t-15.5 28q-21 5 -41.5 11t-28.5 6q-2 -1 -8 -1q-10 0 -23 2t-26 3q-4 2 -15.5 3.5t-25 2.5t-25 2t-15.5 2q-9 -5 -13 -15t-4 -20q0 -16 14.5 -24t33.5 -11.5t37 -3.5h25l9.5 -2t21.5 -5t22 -6t10 -4q0 -14 -5.5 -24t-10.5 -21q-33 -2 -55 -5
t-51 -3q-10 -5 -33 -5h-8q-43 0 -43 -51q0 -8 4 -12q0 -2 -1.5 -22t-3 -43.5t-2.5 -43.5l-1 -20v-8q0 -9 2 -19.5t7 -21.5q23 -13 39 -13.5t31 -0.5h50t31 1t24 3.5l28 6.5t28.5 5.5t18.5 3.5t10 8t3 19t-5.5 22.5t-16.5 9.5q-17 0 -32 -2.5l-30.5 -5t-33 -5t-39.5 -2.5h-27
t-14 1q-2 9 -3 19.5t-1 21.5q0 4 0.5 7.5t0.5 6.5l6 73q26 5 56.5 8.5t47.5 3.5h17q4 1 11.5 3.5t15.5 4.5t15 4t10 3q15 27 21 49t11 50zM610 -138q0 -2 -2 -8t-6 -12t-11 -11t-17 -5q-11 0 -20.5 6.5t-9.5 21.5q0 4 2 14.5t10 18.5q11 3 18 4.5t13 1.5q3 0 7 -4t7.5 -9.5
t6 -10.5t2.5 -7z" />
    </font>
</defs>
</svg>
