<?xml version="1.0" standalone="no"?>
<!DOCTYPE svg PUBLIC "-//W3C//DTD SVG 1.1//EN" "http://www.w3.org/Graphics/SVG/1.1/DTD/svg11.dtd" >
<svg>
<metadata>
Created by FontForge 20090622 at Wed Jan 31 09:38:18 2018
 By deploy user
Copyright (C) 2002, 2008 Hoefler &#38; Frere-Jones. http://www.typography.com
</metadata>
<defs>
<font id="GothamCondensed-Black" horiz-adv-x="402" >
  <font-face 
    font-family="Gotham Condensed"
    font-weight="900"
    font-stretch="condensed"
    units-per-em="1000"
    panose-1="0 0 0 0 0 0 0 0 0 0"
    ascent="800"
    descent="-200"
    x-height="541"
    cap-height="700"
    bbox="-48 -226 816 945"
    underline-thickness="50"
    underline-position="-50"
    unicode-range="U+0020-U+FB04"
  />
<missing-glyph horiz-adv-x="500" 
d="M0 -200v1000h500v-1000h-500zM71 750l179 -390l179 390h-358zM50 -76l172 376l-172 376v-752zM450 676l-172 -376l172 -376v752zM250 240l-179 -390h358z" />
    <glyph glyph-name="f_f" unicode="ff" horiz-adv-x="502" 
d="M41 0v424h-31v117h31v24q0 72 37 111q38 36 108 36q34 0 62 -5v-114q-10 2 -21 2q-42 0 -42 -41v-14h62v-116h-60v-424h-146zM292 0v424h-30v116h30v25q0 72 37 111q37 36 108 36q34 0 62 -5v-114q-10 2 -21 2q-42 0 -42 -41v-14h63v-116h-61v-424h-146z" />
    <glyph glyph-name="fi" unicode="fi" horiz-adv-x="453" 
d="M41 0v424h-31v117h31v24q0 72 37 111q38 36 108 36q34 0 62 -5v-114q-10 2 -21 2q-42 0 -42 -41v-14h63v-116h-61v-424h-146zM280 0v541h146v-541h-146zM279 582v128h148v-128h-148z" />
    <glyph glyph-name="fl" unicode="fl" horiz-adv-x="453" 
d="M41 0v424h-31v117h31v24q0 72 37 111q38 36 108 36q34 0 62 -5v-114q-10 2 -21 2q-42 0 -42 -41v-14h63v-116h-61v-424h-146zM280 0v710h146v-710h-146z" />
    <glyph glyph-name="f_f_i" unicode="ffi" horiz-adv-x="704" 
d="M41 0v424h-31v117h31v24q0 72 37 111q38 36 108 36q34 0 62 -5v-114q-10 2 -21 2q-42 0 -42 -41v-14h62v-116h-60v-424h-146zM292 0v424h-30v116h30v25q0 72 37 111q37 36 108 36q34 0 62 -5v-114q-10 2 -21 2q-42 0 -42 -41v-14h63v-116h-61v-424h-146zM531 0v541h146
v-541h-146zM530 582v128h148v-128h-148z" />
    <glyph glyph-name="f_f_l" unicode="ffl" horiz-adv-x="704" 
d="M41 0v424h-31v117h31v24q0 72 37 111q38 36 108 36q34 0 62 -5v-114q-10 2 -21 2q-42 0 -42 -41v-14h62v-116h-60v-424h-146zM292 0v424h-30v116h30v25q0 72 37 111q37 36 108 36q34 0 62 -5v-114q-10 2 -21 2q-42 0 -42 -41v-14h63v-116h-61v-424h-146zM531 0v710h146
v-710h-146z" />
    <glyph glyph-name=".notdef" horiz-adv-x="500" 
d="M0 -200v1000h500v-1000h-500zM71 750l179 -390l179 390h-358zM50 -76l172 376l-172 376v-752zM450 676l-172 -376l172 -376v752zM250 240l-179 -390h358z" />
    <glyph glyph-name=".null" horiz-adv-x="0" 
 />
    <glyph glyph-name="nonmarkingreturn" horiz-adv-x="333" 
 />
    <glyph glyph-name="space" unicode=" " horiz-adv-x="150" 
 />
    <glyph glyph-name="exclam" unicode="!" horiz-adv-x="231" 
d="M79 224l-55 460v16h183v-16l-54 -460h-74zM33 0v159h165v-159h-165z" />
    <glyph glyph-name="quotedbl" unicode="&#x22;" horiz-adv-x="355" 
d="M205 380v320h140v-8l-83 -312h-57zM32 380v320h141v-8l-84 -312h-57z" />
    <glyph glyph-name="numbersign" unicode="#" horiz-adv-x="410" 
d="M378 281v-131h-66l-15 -150h-96l15 150h-62l-15 -150h-96l15 150h-45v131h58l14 142h-53v132h66l15 145h96l-15 -145h62l15 145h96l-15 -145h45v-132h-58l-14 -142h53zM179 426l-15 -147h67l15 147h-67z" />
    <glyph glyph-name="dollar" unicode="$" horiz-adv-x="372" 
d="M330 677v-151q-59 34 -108 34q-24 0 -39 -12.5t-15 -34.5v-1q0 -18 13 -35.5t57 -59.5q67 -67 93.5 -112.5t26.5 -107.5v-1q0 -67 -32.5 -116t-87.5 -69v-118h-104v107q-58 6 -106 34v149q72 -42 123 -42q26 0 41.5 12.5t15.5 36.5v1q0 18 -13.5 37.5t-55.5 58.5
q-64 61 -92.5 108t-28.5 112v1q0 66 30.5 114t85.5 68v84h104v-73q45 -4 92 -24z" />
    <glyph glyph-name="percent" unicode="%" horiz-adv-x="576" 
d="M136 316q-54 0 -85 48t-31 138v18q0 91 31 139t85 48t85.5 -48t31.5 -139v-18q0 -89 -32 -137.5t-85 -48.5zM136 619q-14 0 -20 -20t-6 -72v-32q0 -52 6 -71.5t20 -19.5q27 0 27 91v32q0 92 -27 92zM255 357l160 343h80l-171 -357l-159 -343h-80zM440 -7q-54 0 -85 48.5
t-31 138.5v18q0 89 32 138t84 49q54 0 85.5 -48t31.5 -139v-18q0 -90 -31.5 -138.5t-85.5 -48.5zM440 82q27 0 27 91v32q0 92 -27 92q-14 0 -20 -20t-6 -72v-32q0 -52 6 -71.5t20 -19.5z" />
    <glyph glyph-name="ampersand" unicode="&#x26;" horiz-adv-x="464" 
d="M354 -15l-30 52q-56 -48 -129 -48q-79 0 -132 53t-53 140v6q0 114 105 199q-32 50 -45.5 84.5t-13.5 73.5v5q0 68 45.5 114.5t117.5 46.5t114.5 -44t42.5 -116v-5q0 -104 -101 -189l56 -102q6 25 14 83l111 -18q-12 -107 -48 -186l51 -87zM213 449q39 42 39 93v6
q0 22 -9.5 35t-25.5 13t-25 -13.5t-9 -34.5v-7q0 -39 30 -92zM213 114q26 0 48 20l-83 151q-27 -37 -27 -84v-6q0 -37 16.5 -59t45.5 -22z" />
    <glyph glyph-name="quotesingle" unicode="'" horiz-adv-x="185" 
d="M32 380v320h143v-8l-86 -312h-57z" />
    <glyph glyph-name="parenleft" unicode="(" horiz-adv-x="290" 
d="M272 -138q-118 24 -181.5 133t-63.5 280v23q0 170 63.5 279.5t181.5 132.5v-106q-107 -54 -107 -311v-13q0 -257 107 -311v-107z" />
    <glyph glyph-name="parenright" unicode=")" horiz-adv-x="290" 
d="M18 -138v107q58 29 82.5 106t24.5 205v13q0 128 -24.5 205t-82.5 106v106q115 -22 180 -130.5t65 -283.5v-18q0 -176 -65 -284.5t-180 -131.5z" />
    <glyph glyph-name="asterisk" unicode="*" horiz-adv-x="315" 
d="M108 390l27 115l-76 -77l-49 84l105 33l-105 33l49 85l76 -77l-27 114h100l-28 -114l76 77l50 -85l-105 -33l105 -33l-50 -84l-76 77l28 -115h-100z" />
    <glyph glyph-name="plus" unicode="+" horiz-adv-x="408" 
d="M138 157v129h-117v132h117v129h132v-129h117v-132h-117v-129h-132z" />
    <glyph glyph-name="comma" unicode="," horiz-adv-x="215" 
d="M27 -148l-13 57q92 21 90 91h-76v162h160v-132q0 -155 -161 -178z" />
    <glyph glyph-name="hyphen" unicode="-" horiz-adv-x="325" 
d="M27 240v145h271v-145h-271z" />
    <glyph glyph-name="period" unicode="." horiz-adv-x="215" 
d="M28 0v162h160v-162h-160z" />
    <glyph glyph-name="slash" unicode="/" horiz-adv-x="317" 
d="M-16 -98l232 866h109l-231 -866h-110z" />
    <glyph glyph-name="zero" unicode="0" horiz-adv-x="428" 
d="M214 -13q-196 0 -196 341v43q0 342 197 342q195 0 195 -341v-43q0 -172 -50.5 -257t-145.5 -85zM214 126q15 0 24.5 13.5t16 57.5t6.5 123v60q0 79 -6.5 123.5t-16 58t-24.5 13.5t-24.5 -13.5t-16 -58t-6.5 -123.5v-60q0 -79 6.5 -123t16 -57.5t24.5 -13.5z" />
    <glyph glyph-name="one" unicode="1" horiz-adv-x="268" 
d="M85 0v543l-72 -22v146l115 36h107v-703h-150z" />
    <glyph glyph-name="two" unicode="2" horiz-adv-x="356" 
d="M18 0v130l130 250q47 93 47 127q0 26 -15 42.5t-45 16.5q-44 0 -103 -32v145q70 32 142 32q76 0 122.5 -44.5t46.5 -124.5v-5q0 -79 -56 -182l-112 -207h165v-148h-322z" />
    <glyph glyph-name="three" unicode="3" horiz-adv-x="352" 
d="M132 -11q-69 0 -118 20v142q49 -19 96 -19q36 0 58.5 22t22.5 59v5q0 83 -127 91v98l113 150h-154v143h311v-132l-122 -161q59 -20 92.5 -62.5t33.5 -121.5v-9q0 -104 -57 -164.5t-149 -60.5z" />
    <glyph glyph-name="four" unicode="4" horiz-adv-x="417" 
d="M211 0v119h-199v108l191 474h149v-455h57v-127h-57v-119h-141zM133 246h80v224z" />
    <glyph glyph-name="five" unicode="5" horiz-adv-x="360" 
d="M131 -11q-62 0 -107 19v145q42 -21 90 -21q39 0 62 26.5t23 72.5v5q0 83 -65 83q-25 0 -45 -8l-69 40l18 349h283v-142h-171l-7 -111q16 2 32 2q76 0 124.5 -50.5t48.5 -158.5v-8q0 -116 -59 -179.5t-158 -63.5z" />
    <glyph glyph-name="six" unicode="6" horiz-adv-x="396" 
d="M205 -13q-69 0 -113 44q-74 74 -74 295v20q0 105 17 178.5t49 113t70 56t87 16.5t94 -14v-137q-38 19 -82 19q-91 0 -92 -144q34 24 78 24q62 0 103 -47t41 -155v-27q0 -113 -50 -177.5t-128 -64.5zM203 115q40 0 40 108v27q0 90 -46 90q-19 0 -35 -11v-92
q0 -122 41 -122z" />
    <glyph glyph-name="seven" unicode="7" horiz-adv-x="343" 
d="M54 0l124 553h-165v147h315v-96l-129 -604h-145z" />
    <glyph glyph-name="eight" unicode="8" horiz-adv-x="399" 
d="M199 -13q-83 0 -133.5 55t-50.5 149v8q0 115 79 171q-71 52 -71 149v7q0 83 50 135t127 52t127 -51.5t50 -134.5v-7q0 -98 -72 -149q80 -55 80 -171v-8q0 -94 -51 -149.5t-135 -55.5zM200 418q39 0 39 86v7q0 85 -39 85t-39 -85v-7q0 -86 39 -86zM200 106q42 0 42 96v9
q0 97 -42 97q-43 0 -43 -97v-9q0 -96 43 -96z" />
    <glyph glyph-name="nine" unicode="9" horiz-adv-x="396" 
d="M142 122q43 0 66 31.5t26 104.5q-34 -23 -77 -23q-63 0 -103.5 47.5t-40.5 159.5v24q0 117 50 182t128 65q70 0 113 -43q74 -74 74 -296v-20q0 -105 -17 -178.5t-49 -112.5t-70.5 -56t-87.5 -17q-57 0 -104 18v136q48 -22 92 -22zM199 352q20 0 35 12v99q0 123 -41 123
q-40 0 -40 -113v-25q0 -54 11.5 -75t34.5 -21z" />
    <glyph glyph-name="colon" unicode=":" horiz-adv-x="220" 
d="M30 380v161h160v-161h-160zM30 0v162h160v-162h-160z" />
    <glyph glyph-name="semicolon" unicode=";" horiz-adv-x="220" 
d="M30 380v161h160v-161h-160zM29 -148l-12 57q90 21 90 91h-77v162h160v-132q0 -155 -161 -178z" />
    <glyph glyph-name="less" unicode="&#x3c;" horiz-adv-x="408" 
d="M374 99l-346 189v129l346 189v-158l-200 -95l200 -94v-160z" />
    <glyph glyph-name="equal" unicode="=" horiz-adv-x="408" 
d="M25 392v135h359v-135h-359zM25 177v136h359v-136h-359z" />
    <glyph glyph-name="greater" unicode="&#x3e;" horiz-adv-x="408" 
d="M34 99v158l200 94l-200 95v160l346 -189v-129z" />
    <glyph glyph-name="question" unicode="?" horiz-adv-x="340" 
d="M96 224l-16 179l3 5q96 24 96 92v2q0 29 -20 46t-54 17q-43 0 -89 -23v139q57 26 122 26q89 0 140.5 -50t51.5 -132v-7q0 -129 -123 -184l-15 -110h-96zM62 0v159h165v-159h-165z" />
    <glyph glyph-name="at" unicode="@" horiz-adv-x="623" 
d="M295 -136q-122 0 -198.5 89.5t-75.5 260.5q1 129 40 241t116.5 184t177.5 72q109 0 177.5 -88.5t68.5 -216.5q0 -145 -46 -246.5t-126 -101.5q-83 0 -97 85q-41 -81 -101 -81q-39 0 -64.5 33t-25.5 98q0 127 46.5 226.5t108.5 99.5q55 0 73 -67l10 59l107 -17l-47 -289
q-6 -30 -6 -58q0 -38 25 -38q37 0 68 92t31 210q0 109 -56 183.5t-151 74.5q-83 0 -149.5 -67t-101 -171.5t-34.5 -220.5q0 -146 63.5 -225.5t171.5 -79.5q79 0 144 39l20 -35q-76 -45 -169 -45zM278 151q9 0 17 8q22 22 38 96t16 122q0 45 -23 45q-9 0 -17 -8
q-22 -23 -38 -97t-16 -122q0 -44 23 -44z" />
    <glyph glyph-name="A" unicode="A" horiz-adv-x="431" 
d="M-4 0l134 702h172l133 -702h-150l-19 126h-105l-19 -126h-146zM180 254h67l-33 220z" />
    <glyph glyph-name="B" unicode="B" horiz-adv-x="419" 
d="M28 0v700h138q129 0 188 -59q46 -46 46 -122v-8q0 -104 -93 -152q103 -51 103 -154v-9q0 -96 -65 -146t-176 -50h-141zM254 489v1q0 72 -74 72h-6v-149h6q34 0 54 19t20 57zM260 216q0 36 -21.5 55.5t-56.5 19.5h-8v-153h8q35 0 56.5 19t21.5 55v4z" />
    <glyph glyph-name="C" unicode="C" horiz-adv-x="363" 
d="M239 -8q-98 0 -159.5 85.5t-61.5 254.5v35q0 173 65.5 257t165.5 84q50 0 91 -19v-151q-42 25 -76 25q-93 0 -93 -200v-26q0 -115 24.5 -157t72.5 -42q31 0 75 25v-144q-45 -27 -104 -27z" />
    <glyph glyph-name="D" unicode="D" horiz-adv-x="447" 
d="M28 0v700h140q128 0 194.5 -85t66.5 -248v-34q0 -163 -66.5 -248t-194.5 -85h-140zM276 368q0 108 -26 151t-72 43v-424q98 0 98 194v36z" />
    <glyph glyph-name="E" unicode="E" horiz-adv-x="352" 
d="M28 0v700h303v-142h-153v-136h136v-140h-136v-139h156v-143h-306z" />
    <glyph glyph-name="F" unicode="F" horiz-adv-x="334" 
d="M28 0v700h291v-142h-141v-138h124v-140h-124v-280h-150z" />
    <glyph glyph-name="G" unicode="G" horiz-adv-x="431" 
d="M255 -10q-105 0 -171 85.5t-66 254.5v40q0 163 69.5 251.5t180.5 88.5q65 0 114 -26v-152q-55 35 -102 35q-51 0 -80 -47.5t-29 -145.5v-48q0 -199 87 -199q4 0 12 2v149h-53v132h189v-380q-82 -40 -151 -40z" />
    <glyph glyph-name="H" unicode="H" horiz-adv-x="445" 
d="M28 0v700h150v-276h90v276h150v-700h-150v281h-90v-281h-150z" />
    <glyph glyph-name="I" unicode="I" horiz-adv-x="209" 
d="M30 0v700h150v-700h-150z" />
    <glyph glyph-name="J" unicode="J" horiz-adv-x="311" 
d="M109 -8q-46 0 -96 14v143q34 -12 64 -12q58 0 58 65v498h150v-513q0 -100 -49 -149q-46 -46 -127 -46z" />
    <glyph glyph-name="K" unicode="K" horiz-adv-x="426" 
d="M29 0v700h150v-266l84 266h157l-110 -296l113 -404h-158l-64 246l-22 -64v-182h-150z" />
    <glyph glyph-name="L" unicode="L" horiz-adv-x="322" 
d="M28 0v700h150v-557h133v-143h-283z" />
    <glyph glyph-name="M" unicode="M" horiz-adv-x="511" 
d="M28 0v700h145l83 -234l82 234h146v-700h-145v375l-82 -229h-2l-83 229v-375h-144z" />
    <glyph glyph-name="N" unicode="N" horiz-adv-x="453" 
d="M28 0v700h144l109 -316v316h144v-700h-137l-116 333v-333h-144z" />
    <glyph glyph-name="O" unicode="O" horiz-adv-x="449" 
d="M225 -13q-97 0 -152 87t-55 254v44q0 168 55 254.5t152 86.5t151.5 -86.5t54.5 -254.5v-44q0 -167 -54.5 -254t-151.5 -87zM225 126q18 0 29 15t17.5 60.5t6.5 125.5v47q0 79 -6.5 124.5t-17.5 61t-29 15.5t-29 -15.5t-18 -61t-7 -124.5v-47q0 -80 7 -125.5t18 -60.5
t29 -15z" />
    <glyph glyph-name="P" unicode="P" horiz-adv-x="409" 
d="M28 0v700h138q109 0 172 -59.5t63 -179.5v-8q0 -119 -64 -179t-156 -63h-4v-211h-149zM177 344h2q73 3 73 105v12q0 106 -72 106h-3v-223z" />
    <glyph glyph-name="Q" unicode="Q" horiz-adv-x="454" 
d="M454 53l-94 -67l-28 41q-46 -39 -107 -39q-97 0 -152 87t-55 254v43q0 168 55 254.5t152 86.5t151.5 -86.5t54.5 -254.5v-43q0 -117 -32 -202zM230 123q15 0 23 9l-51 69l77 54q1 20 1 70v49q0 116 -13 158.5t-41 42.5q-18 0 -29.5 -15.5t-18.5 -61t-7 -124.5v-49
q0 -84 7.5 -129t19 -59t32.5 -14z" />
    <glyph glyph-name="R" unicode="R" horiz-adv-x="423" 
d="M28 0v700h150q113 0 172 -59q59 -61 59 -168v-10q0 -122 -82 -186l93 -277h-160l-71 228h-12v-228h-149zM177 354h5q74 0 74 99v15q0 98 -75 98h-4v-212z" />
    <glyph glyph-name="S" unicode="S" horiz-adv-x="359" 
d="M162 -8q-78 0 -141 36v149q72 -42 123 -42q57 0 57 52v1q0 33 -61 93q-73 69 -101 115t-28 112v3q0 89 53 143t135 54q67 0 124 -25v-151q-59 34 -109 34q-24 0 -38.5 -13.5t-14.5 -35.5v-1q0 -18 12.5 -36.5t48.5 -55.5q75 -73 102 -119.5t27 -111.5v-4q0 -87 -55 -142
t-134 -55z" />
    <glyph glyph-name="T" unicode="T" horiz-adv-x="356" 
d="M103 0v557h-92v143h334v-143h-92v-557h-150z" />
    <glyph glyph-name="U" unicode="U" horiz-adv-x="437" 
d="M218 -11q-88 0 -140 55t-52 165v491h150v-502q0 -70 43 -70t43 70v502h150v-490q0 -110 -53 -165.5t-141 -55.5z" />
    <glyph glyph-name="V" unicode="V" horiz-adv-x="414" 
d="M128 -2l-132 702h154l59 -419l60 419h149l-131 -702h-159z" />
    <glyph glyph-name="W" unicode="W" horiz-adv-x="630" 
d="M108 -2l-109 702h156l44 -402l53 402h129l52 -402l44 402h153l-108 -702h-157l-50 353l-51 -353h-156z" />
    <glyph glyph-name="X" unicode="X" horiz-adv-x="410" 
d="M254 700h150l-107 -343l111 -357h-156l-48 207l-52 -207h-150l110 355l-106 345h156l44 -193z" />
    <glyph glyph-name="Y" unicode="Y" horiz-adv-x="409" 
d="M130 0v261l-134 439h154l57 -246l56 246h150l-133 -439v-261h-150z" />
    <glyph glyph-name="Z" unicode="Z" horiz-adv-x="359" 
d="M18 0v122l157 436h-152v142h319v-122l-157 -436h157v-142h-324z" />
    <glyph glyph-name="bracketleft" unicode="[" horiz-adv-x="276" 
d="M42 -130v830h215v-101h-87v-628h87v-101h-215z" />
    <glyph glyph-name="backslash" unicode="\" horiz-adv-x="317" 
d="M224 -98l-232 866h110l231 -866h-109z" />
    <glyph glyph-name="bracketright" unicode="]" horiz-adv-x="276" 
d="M19 -130v101h87v628h-87v101h215v-830h-215z" />
    <glyph glyph-name="asciicircum" unicode="^" horiz-adv-x="500" 
d="M112 492l79 205h118l79 -205h-92l-47 129l-47 -129h-90z" />
    <glyph glyph-name="underscore" unicode="_" horiz-adv-x="480" 
d="M-2 -151v108h484v-108h-484z" />
    <glyph glyph-name="grave" unicode="`" horiz-adv-x="500" 
d="M255 572l-111 95l122 43l78 -138h-89z" />
    <glyph glyph-name="a" unicode="a" horiz-adv-x="376" 
d="M118 -10q-48 0 -78 43t-30 118v17q0 87 34 129t91 42q39 0 74 -20v21q0 75 -72 75q-45 0 -99 -27v136q61 25 131 25q89 0 135 -46q50 -50 50 -150v-353h-145v51q-34 -61 -91 -61zM176 100q14 0 24 12t10 35v83q-18 9 -32 9q-34 0 -34 -61v-20q0 -58 32 -58z" />
    <glyph glyph-name="b" unicode="b" horiz-adv-x="411" 
d="M271 -11q-35 0 -57 19.5t-42 54.5v-63h-146v710h146v-232q20 35 42 54.5t57 19.5q120 0 120 -255v-53q0 -255 -120 -255zM209 122q36 0 36 120v57q0 120 -36 120q-38 0 -38 -120v-57q0 -120 38 -120z" />
    <glyph glyph-name="c" unicode="c" horiz-adv-x="309" 
d="M202 -12q-87 0 -136 68.5t-49 195.5v39q0 124 52 192.5t135 68.5q48 0 88 -18v-142q-36 21 -63 21q-65 0 -65 -126v-33q0 -126 67 -126q25 0 62 22v-138q-42 -24 -91 -24z" />
    <glyph glyph-name="d" unicode="d" horiz-adv-x="411" 
d="M140 -11q-120 0 -120 255v53q0 255 120 255q35 0 57 -19t42 -54v231h146v-710h-146v64q-20 -36 -42 -55.5t-57 -19.5zM202 122q38 0 38 120v57q0 120 -38 120q-36 0 -36 -120v-57q0 -120 36 -120z" />
    <glyph glyph-name="e" unicode="e" horiz-adv-x="381" 
d="M216 -12q-90 0 -145 69t-55 197v32q0 126 50.5 196.5t131.5 70.5q79 0 124.5 -70.5t45.5 -201.5v-73h-208q10 -87 79 -87q48 0 107 39l9 -130q-67 -42 -139 -42zM158 308h75q0 118 -36 118t-39 -118z" />
    <glyph glyph-name="f" unicode="f" horiz-adv-x="251" 
d="M41 0v424h-31v117h31v24q0 72 37 111q38 36 108 36q34 0 62 -5v-114q-10 2 -21 2q-42 0 -42 -41v-14h63v-116h-61v-424h-146z" />
    <glyph glyph-name="g" unicode="g" horiz-adv-x="411" 
d="M176 -134q-69 0 -134 18v129q64 -23 121 -23q78 0 78 78v42q-45 -72 -101 -72q-120 0 -120 244v21q0 249 120 249q35 0 57 -19t42 -54v62h146v-472q0 -101 -50 -151q-52 -52 -159 -52zM202 168q38 0 38 116v19q0 116 -38 116q-36 0 -36 -116v-19q0 -116 36 -116z" />
    <glyph glyph-name="h" unicode="h" 
d="M26 0v710h146v-231q38 73 101 73q52 0 79 -36.5t27 -99.5v-416h-146v377q0 44 -30 44q-14 0 -22.5 -11.5t-8.5 -32.5v-377h-146z" />
    <glyph glyph-name="i" unicode="i" horiz-adv-x="200" 
d="M26 582v128h148v-128h-148zM27 0v541h146v-541h-146z" />
    <glyph glyph-name="j" unicode="j" horiz-adv-x="202" 
d="M28 582v128h148v-128h-148zM34 -134q-36 0 -61 5v102q4 -1 16 -1q40 0 40 41v528h146v-530q0 -77 -35.5 -111t-105.5 -34z" />
    <glyph glyph-name="k" unicode="k" horiz-adv-x="387" 
d="M26 0v710h146v-352l63 183h151l-87 -221l87 -320h-153l-44 193l-17 -45v-148h-146z" />
    <glyph glyph-name="l" unicode="l" horiz-adv-x="200" 
d="M27 0v710h146v-710h-146z" />
    <glyph glyph-name="m" unicode="m" horiz-adv-x="606" 
d="M26 0v541h145v-61q40 72 101 72q65 0 95 -67q41 67 104 67q50 0 80.5 -37t30.5 -100v-415h-145v376q0 45 -30 45q-14 0 -22.5 -12t-8.5 -33v-376h-145v376q0 45 -29 45q-31 0 -31 -45v-376h-145z" />
    <glyph glyph-name="n" unicode="n" 
d="M26 0v541h146v-62q38 73 101 73q52 0 79 -36.5t27 -99.5v-416h-146v377q0 44 -30 44q-14 0 -22.5 -11.5t-8.5 -32.5v-377h-146z" />
    <glyph glyph-name="o" unicode="o" 
d="M201 -13q-83 0 -133.5 68t-50.5 194v42q0 126 50.5 194t134.5 68q83 0 133 -68t50 -194v-42q0 -126 -50 -194t-134 -68zM201 117q39 0 39 131v45q0 131 -39 131q-38 0 -38 -131v-45q0 -131 38 -131z" />
    <glyph glyph-name="p" unicode="p" horiz-adv-x="411" 
d="M26 -130v671h146v-63q20 35 42 54.5t57 19.5q120 0 120 -255v-53q0 -255 -120 -255q-35 0 -57 19.5t-42 54.5v-193h-146zM209 122q36 0 36 120v57q0 120 -36 120q-38 0 -38 -120v-57q0 -120 38 -120z" />
    <glyph glyph-name="q" unicode="q" horiz-adv-x="411" 
d="M239 -130v194q-20 -36 -42 -55.5t-57 -19.5q-120 0 -120 255v53q0 255 120 255q35 0 57 -19t42 -54v62h146v-671h-146zM202 122q38 0 38 120v57q0 120 -38 120q-36 0 -36 -120v-57q0 -120 36 -120z" />
    <glyph glyph-name="r" unicode="r" horiz-adv-x="266" 
d="M26 0v541h145v-75q27 86 86 82v-175h-3q-82 0 -82 -112v-261h-146z" />
    <glyph glyph-name="s" unicode="s" horiz-adv-x="308" 
d="M141 -11q-66 0 -126 30v139q72 -40 111 -40q34 0 34 31v1q0 13 -9.5 26t-40.5 41q-51 45 -76 83t-25 95v2q0 71 45 112.5t118 41.5q54 0 105 -18v-140q-55 29 -94 29q-34 0 -34 -27v-1q0 -11 9.5 -22.5t42.5 -42.5q52 -46 75.5 -83.5t23.5 -93.5v-2q0 -72 -45 -116.5
t-114 -44.5z" />
    <glyph glyph-name="t" unicode="t" horiz-adv-x="260" 
d="M161 -9q-120 0 -120 113v320h-30v117h30v132h146v-132h61v-117h-61v-275q0 -28 28 -28q13 0 32 8v-117q-40 -21 -86 -21z" />
    <glyph glyph-name="u" unicode="u" 
d="M129 -11q-52 0 -79 37t-27 99v416h146v-376q0 -45 30 -45q14 0 22.5 12t8.5 33v376h146v-541h-146v62q-38 -73 -101 -73z" />
    <glyph glyph-name="v" unicode="v" horiz-adv-x="385" 
d="M118 -2l-117 543h147l46 -316l45 316h145l-116 -543h-150z" />
    <glyph glyph-name="w" unicode="w" horiz-adv-x="549" 
d="M100 -2l-97 543h146l34 -282l37 282h112l36 -282l35 282h143l-96 -543h-132l-43 260l-43 -260h-132z" />
    <glyph glyph-name="x" unicode="x" horiz-adv-x="385" 
d="M153 541l39 -146l42 146h146l-100 -265l103 -276h-149l-41 158l-44 -158h-147l102 276l-99 265h148z" />
    <glyph glyph-name="y" unicode="y" horiz-adv-x="383" 
d="M192 246l46 295h144l-155 -671h-143l34 144l-116 527h145z" />
    <glyph glyph-name="z" unicode="z" horiz-adv-x="319" 
d="M12 0v105l138 314h-135v122h293v-105l-139 -313h139v-123h-296z" />
    <glyph glyph-name="braceleft" unicode="{" horiz-adv-x="318" 
d="M298 -137q-107 2 -160.5 45t-53.5 114q0 29 13.5 73t13.5 71q0 66 -75 66h-18v109h18q35 0 55 16.5t20 48.5q0 27 -13.5 71t-13.5 73q0 71 53.5 114t160.5 45v-100q-85 -6 -85 -69q0 -26 14.5 -70t14.5 -71q0 -46 -30.5 -75.5t-83.5 -37.5q53 -8 83.5 -37.5t30.5 -75.5
q0 -26 -14.5 -70.5t-14.5 -69.5q0 -64 85 -70v-100z" />
    <glyph glyph-name="bar" unicode="|" horiz-adv-x="231" 
d="M64 -98v866h103v-866h-103z" />
    <glyph glyph-name="braceright" unicode="}" horiz-adv-x="318" 
d="M20 -137v100q85 6 85 70q0 25 -14.5 69.5t-14.5 70.5q0 46 30.5 75.5t83.5 37.5q-53 8 -83.5 37.5t-30.5 75.5q0 27 14.5 71t14.5 70q0 63 -85 69v100q107 -2 160.5 -45t53.5 -114q0 -29 -13.5 -73t-13.5 -71q0 -65 75 -65h18v-109h-18q-75 0 -75 -66q0 -27 13.5 -71
t13.5 -73q0 -71 -53.5 -114t-160.5 -45z" />
    <glyph glyph-name="asciitilde" unicode="~" horiz-adv-x="362" 
d="M250 254q-27 0 -67 19q-39 18 -52 18q-23 0 -33 -41l-66 16q4 55 27 84t53 29q29 0 67 -20q41 -17 52 -17q23 0 33 41l66 -16q-4 -55 -27 -84t-53 -29z" />
    <glyph glyph-name="uni00A0" unicode="&#xa0;" horiz-adv-x="150" 
 />
    <glyph glyph-name="exclamdown" unicode="&#xa1;" horiz-adv-x="231" 
d="M33 541v159h165v-159h-165zM24 0v16l55 460h74l54 -460v-16h-183z" />
    <glyph glyph-name="cent" unicode="&#xa2;" horiz-adv-x="316" 
d="M236 705v-73q25 -2 57 -16v-142q-36 21 -63 21q-65 0 -65 -126v-33q0 -126 67 -126q25 0 62 22v-138q-30 -16 -58 -21v-79h-100v89q-118 49 -118 251v39q0 96 31.5 159t86.5 88v85h100z" />
    <glyph glyph-name="sterling" unicode="&#xa3;" horiz-adv-x="380" 
d="M18 0v104l55 28v139h-52v133h52v87q0 118 54 171q48 48 131 48q54 0 93 -11v-142q-30 10 -61 10t-48 -18q-20 -19 -20 -65v-80h104v-133h-104v-132h145v-139h-349z" />
    <glyph glyph-name="yen" unicode="&#xa5;" horiz-adv-x="419" 
d="M40 257v111h68l-109 332h150l63 -254l62 254h146l-108 -332h67v-111h-95v-50h95v-111h-95v-96h-148v96h-96v111h96v50h-96z" />
    <glyph glyph-name="section" unicode="&#xa7;" horiz-adv-x="419" 
d="M324 233q38 -40 38 -94v-1q0 -67 -46.5 -108t-121.5 -41q-62 0 -119 22v129q60 -29 105 -29q20 0 31.5 8.5t11.5 20.5v1q0 15 -14.5 26.5t-60.5 33.5q-73 33 -104.5 63t-31.5 81v2q0 79 85 121q-39 38 -39 93v2q0 67 47 107.5t122 40.5q61 0 118 -21v-130q-62 30 -104 30
q-20 0 -31.5 -8.5t-11.5 -20.5v-2q0 -15 14 -26t60 -33q73 -33 104.5 -63t31.5 -82v-2q0 -80 -84 -120zM246 285q33 24 33 49v1q0 16 -17 31t-78 45l-10 5q-32 -23 -32 -49v-1q0 -17 17 -32t77 -44z" />
    <glyph glyph-name="dieresis" unicode="&#xa8;" horiz-adv-x="500" 
d="M265 574v115h114v-115h-114zM122 574v115h113v-115h-113z" />
    <glyph glyph-name="copyright" unicode="&#xa9;" horiz-adv-x="515" 
d="M258 -13q-108 0 -174 93.5t-66 252.5v34q0 159 66 252.5t174 93.5t173.5 -93.5t65.5 -252.5v-34q0 -158 -66 -252t-173 -94zM258 24q94 0 147.5 83.5t53.5 224.5v36q0 142 -53.5 225.5t-147.5 83.5q-95 0 -148.5 -83.5t-53.5 -225.5v-36q0 -141 54 -224.5t148 -83.5z
M274 143q-59 0 -94.5 49.5t-35.5 146.5v24q0 97 37.5 146.5t96.5 49.5q32 0 57 -12v-93q-25 14 -44 14q-52 0 -52 -108v-19q0 -61 13.5 -84.5t39.5 -23.5q18 0 44 15v-90q-25 -15 -62 -15z" />
    <glyph glyph-name="ordfeminine" unicode="&#xaa;" horiz-adv-x="252" 
d="M88 402q-26 0 -42.5 23t-16.5 64v9q0 93 68 93q21 0 41 -11v11q0 41 -40 41q-22 0 -54 -15v75q36 13 73 13q55 0 79 -33q21 -27 21 -74v-191h-79v28q-20 -33 -50 -33zM29 291v65h196v-65h-196zM120 461q18 0 18 26v45q-10 5 -17 5q-19 0 -19 -34v-10q0 -32 18 -32z" />
    <glyph glyph-name="guillemotleft" unicode="&#xab;" horiz-adv-x="432" 
d="M144 44l-128 216v21l128 216l92 -43l-85 -182l87 -183zM325 44l-132 223v8l132 222l92 -43l-86 -182l87 -183z" />
    <glyph glyph-name="registered" unicode="&#xae;" horiz-adv-x="286" 
d="M143 360q-55 0 -89 45.5t-34 122.5v17q0 77 34 122.5t89 45.5t89.5 -45.5t34.5 -122.5v-17q0 -77 -34.5 -122.5t-89.5 -45.5zM143 379q47 0 74.5 40.5t27.5 108.5v17q0 68 -27.5 108.5t-74.5 40.5t-74.5 -40.5t-27.5 -108.5v-17q0 -68 27.5 -108.5t74.5 -40.5zM90 441
v196h48q66 0 66 -64v-3q0 -34 -25 -52l29 -77h-47l-22 63h-5v-63h-44zM134 541h4q21 0 21 28v3q0 26 -22 26h-3v-57z" />
    <glyph glyph-name="macron" unicode="&#xaf;" horiz-adv-x="500" 
d="M126 575v90h248v-90h-248z" />
    <glyph glyph-name="degree" unicode="&#xb0;" horiz-adv-x="274" 
d="M137 355q-54 0 -87 45t-33 120v22q0 75 33.5 119.5t87.5 44.5t87 -45t33 -119v-22q0 -75 -33.5 -120t-87.5 -45zM137 442q28 0 28 78v21q0 79 -28 79q-27 0 -27 -79v-21q0 -78 27 -78z" />
    <glyph glyph-name="plusminus" unicode="&#xb1;" horiz-adv-x="408" 
d="M387 306h-117v-129h-132v129h-117v132h117v129h132v-129h117v-132zM386 0h-364v125h364v-125z" />
    <glyph glyph-name="acute" unicode="&#xb4;" horiz-adv-x="500" 
d="M151 572l77 138l123 -43l-111 -95h-89z" />
    <glyph glyph-name="paragraph" unicode="&#xb6;" horiz-adv-x="357" 
d="M194 0v224q-78 11 -130.5 68.5t-52.5 168.5v4q0 122 63.5 178.5t167.5 56.5h84v-700h-132z" />
    <glyph glyph-name="periodcentered" unicode="&#xb7;" horiz-adv-x="225" 
d="M33 232v161h160v-161h-160z" />
    <glyph glyph-name="cedilla" unicode="&#xb8;" horiz-adv-x="500" 
d="M261 -130l-130 35l81 115h92z" />
    <glyph glyph-name="ordmasculine" unicode="&#xba;" horiz-adv-x="252" 
d="M126 399q-46 0 -73 36.5t-27 105.5v23q0 68 27.5 105t73.5 37q45 0 72 -37t27 -105v-23q0 -69 -27 -105.5t-73 -36.5zM31 291v65h190v-65h-190zM126 469q21 0 21 71v25q0 71 -21 71t-21 -71v-25q0 -71 21 -71z" />
    <glyph glyph-name="guillemotright" unicode="&#xbb;" horiz-adv-x="432" 
d="M288 497l128 -216v-21l-128 -216l-92 44l86 182l-87 183zM108 497l131 -222v-8l-131 -223l-92 44l85 182l-87 183z" />
    <glyph glyph-name="questiondown" unicode="&#xbf;" horiz-adv-x="340" 
d="M113 541v159h165v-159h-165zM202 -7q-89 0 -140 50t-51 133v7q0 130 123 184l14 109h97l16 -178l-4 -6q-96 -25 -96 -91v-3q0 -28 20 -45t54 -17q45 0 89 23v-139q-59 -27 -122 -27z" />
    <glyph glyph-name="Agrave" unicode="&#xc0;" horiz-adv-x="431" 
d="M-4 0l134 702h172l133 -702h-150l-19 126h-105l-19 -126h-146zM180 254h67l-33 220zM271 734h-103l-105 77l136 41z" />
    <glyph glyph-name="Aacute" unicode="&#xc1;" horiz-adv-x="431" 
d="M-4 0l134 702h172l133 -702h-150l-19 126h-105l-19 -126h-146zM180 254h67l-33 220zM160 734l72 118l137 -41l-106 -77h-103z" />
    <glyph glyph-name="Acircumflex" unicode="&#xc2;" horiz-adv-x="431" 
d="M-4 0l134 702h172l133 -702h-150l-19 126h-105l-19 -126h-146zM180 254h67l-33 220zM85 734l74 111h114l74 -111h-91l-41 41l-40 -41h-90z" />
    <glyph glyph-name="Atilde" unicode="&#xc3;" horiz-adv-x="431" 
d="M-4 0l134 702h172l133 -702h-150l-19 126h-105l-19 -126h-146zM180 254h67l-33 220zM288 732q-20 0 -63 17q-39 15 -50 15t-16.5 -7.5t-10.5 -28.5l-72 15q10 116 74 116q18 0 65 -18q39 -15 48 -15q19 0 27 36l72 -14q-10 -116 -74 -116z" />
    <glyph glyph-name="Adieresis" unicode="&#xc4;" horiz-adv-x="431" 
d="M-4 0l134 702h172l133 -702h-150l-19 126h-105l-19 -126h-146zM180 254h67l-33 220zM233 736v110h117v-110h-117zM83 736v110h116v-110h-116z" />
    <glyph glyph-name="Aring" unicode="&#xc5;" horiz-adv-x="431" 
d="M-4 0l133 698q-9 18 -9 41q0 39 27.5 64.5t68.5 25.5q42 0 69 -25.5t27 -64.5q0 -25 -10 -42l133 -697h-150l-19 126h-105l-19 -126h-146zM180 254h67l-33 220zM216 694q19 0 31.5 12.5t12.5 31.5t-12.5 31.5t-31.5 12.5t-31.5 -12.5t-12.5 -31.5t12.5 -31.5t31.5 -12.5z
" />
    <glyph glyph-name="AE" unicode="&#xc6;" horiz-adv-x="588" 
d="M-7 0l168 700h406v-142h-154v-136h137v-140h-137v-139h157v-143h-307v126h-98l-26 -126h-146zM189 254h74v299h-11z" />
    <glyph glyph-name="Ccedilla" unicode="&#xc7;" horiz-adv-x="363" 
d="M227 -130l-130 35l70 100q-69 27 -109 109t-40 218v35q0 173 65.5 257t165.5 84q50 0 91 -19v-151q-42 25 -76 25q-93 0 -93 -200v-26q0 -115 24.5 -157t72.5 -42q31 0 75 25v-144q-36 -22 -81 -26z" />
    <glyph glyph-name="Egrave" unicode="&#xc8;" horiz-adv-x="352" 
d="M236 728h-103l-105 77l136 41zM28 0v700h303v-142h-153v-136h136v-140h-136v-139h156v-143h-306z" />
    <glyph glyph-name="Eacute" unicode="&#xc9;" horiz-adv-x="352" 
d="M126 728l72 118l137 -41l-106 -77h-103zM28 0v700h303v-142h-153v-136h136v-140h-136v-139h156v-143h-306z" />
    <glyph glyph-name="Ecircumflex" unicode="&#xca;" horiz-adv-x="352" 
d="M28 0v700h303v-142h-153v-136h136v-140h-136v-139h156v-143h-306zM50 728l74 111h114l74 -111h-91l-41 41l-40 -41h-90z" />
    <glyph glyph-name="Edieresis" unicode="&#xcb;" horiz-adv-x="352" 
d="M198 730v110h117v-110h-117zM48 730v110h116v-110h-116zM28 0v700h303v-142h-153v-136h136v-140h-136v-139h156v-143h-306z" />
    <glyph glyph-name="Igrave" unicode="&#xcc;" horiz-adv-x="209" 
d="M30 0v700h150v-700h-150zM160 728h-103l-105 77l136 41z" />
    <glyph glyph-name="Iacute" unicode="&#xcd;" horiz-adv-x="209" 
d="M30 0v700h150v-700h-150zM50 728l72 118l137 -41l-106 -77h-103z" />
    <glyph glyph-name="Icircumflex" unicode="&#xce;" horiz-adv-x="209" 
d="M30 0v700h150v-700h-150zM-26 728l74 111h114l74 -111h-91l-41 41l-40 -41h-90z" />
    <glyph glyph-name="Idieresis" unicode="&#xcf;" horiz-adv-x="209" 
d="M30 0v700h150v-700h-150zM122 730v110h117v-110h-117zM-28 730v110h116v-110h-116z" />
    <glyph glyph-name="Eth" unicode="&#xd0;" horiz-adv-x="461" 
d="M42 0v288h-35v129h35v283h140q128 0 194.5 -85t66.5 -248v-34q0 -163 -66.5 -248t-194.5 -85h-140zM238 289h-48v-151h2q98 0 98 194v36q0 108 -26 151t-72 43h-2v-147h48v-126z" />
    <glyph glyph-name="Ntilde" unicode="&#xd1;" horiz-adv-x="453" 
d="M299 724q-21 0 -63 17q-39 15 -50 15t-16.5 -7.5t-10.5 -28.5l-72 15q10 116 74 116q18 0 65 -18q39 -15 48 -15q19 0 27 36l72 -14q-10 -116 -74 -116zM28 0v700h144l109 -316v316h144v-700h-137l-116 333v-333h-144z" />
    <glyph glyph-name="Ograve" unicode="&#xd2;" horiz-adv-x="449" 
d="M280 734h-103l-105 77l136 41zM225 -13q-97 0 -152 87t-55 254v44q0 168 55 254.5t152 86.5t151.5 -86.5t54.5 -254.5v-44q0 -167 -54.5 -254t-151.5 -87zM225 126q18 0 29 15t17.5 60.5t6.5 125.5v47q0 79 -6.5 124.5t-17.5 61t-29 15.5t-29 -15.5t-18 -61t-7 -124.5
v-47q0 -80 7 -125.5t18 -60.5t29 -15z" />
    <glyph glyph-name="Oacute" unicode="&#xd3;" horiz-adv-x="449" 
d="M169 734l72 118l137 -41l-106 -77h-103zM225 -13q-97 0 -152 87t-55 254v44q0 168 55 254.5t152 86.5t151.5 -86.5t54.5 -254.5v-44q0 -167 -54.5 -254t-151.5 -87zM225 126q18 0 29 15t17.5 60.5t6.5 125.5v47q0 79 -6.5 124.5t-17.5 61t-29 15.5t-29 -15.5t-18 -61
t-7 -124.5v-47q0 -80 7 -125.5t18 -60.5t29 -15z" />
    <glyph glyph-name="Ocircumflex" unicode="&#xd4;" horiz-adv-x="449" 
d="M225 -13q-97 0 -152 87t-55 254v44q0 168 55 254.5t152 86.5t151.5 -86.5t54.5 -254.5v-44q0 -167 -54.5 -254t-151.5 -87zM225 126q18 0 29 15t17.5 60.5t6.5 125.5v47q0 79 -6.5 124.5t-17.5 61t-29 15.5t-29 -15.5t-18 -61t-7 -124.5v-47q0 -80 7 -125.5t18 -60.5
t29 -15zM94 734l74 111h114l74 -111h-91l-41 41l-40 -41h-90z" />
    <glyph glyph-name="Otilde" unicode="&#xd5;" horiz-adv-x="449" 
d="M297 732q-21 0 -63 17q-39 15 -50 15t-16.5 -7.5t-10.5 -28.5l-72 15q10 116 74 116q18 0 65 -18q39 -15 48 -15q19 0 27 36l72 -14q-10 -116 -74 -116zM225 -13q-97 0 -152 87t-55 254v44q0 168 55 254.5t152 86.5t151.5 -86.5t54.5 -254.5v-44q0 -167 -54.5 -254
t-151.5 -87zM225 126q18 0 29 15t17.5 60.5t6.5 125.5v47q0 79 -6.5 124.5t-17.5 61t-29 15.5t-29 -15.5t-18 -61t-7 -124.5v-47q0 -80 7 -125.5t18 -60.5t29 -15z" />
    <glyph glyph-name="Odieresis" unicode="&#xd6;" horiz-adv-x="449" 
d="M242 736v110h117v-110h-117zM92 736v110h116v-110h-116zM225 -13q-97 0 -152 87t-55 254v44q0 168 55 254.5t152 86.5t151.5 -86.5t54.5 -254.5v-44q0 -167 -54.5 -254t-151.5 -87zM225 126q18 0 29 15t17.5 60.5t6.5 125.5v47q0 79 -6.5 124.5t-17.5 61t-29 15.5
t-29 -15.5t-18 -61t-7 -124.5v-47q0 -80 7 -125.5t18 -60.5t29 -15z" />
    <glyph glyph-name="multiply" unicode="&#xd7;" horiz-adv-x="408" 
d="M295 159l-91 98l-91 -98l-98 89l99 104l-99 104l98 90l91 -99l92 99l97 -90l-98 -104l98 -104z" />
    <glyph glyph-name="Oslash" unicode="&#xd8;" horiz-adv-x="449" 
d="M354 705h71l-42 -93q48 -90 48 -240v-44q0 -167 -54.5 -254t-151.5 -87q-66 0 -114 42l-15 -34h-72l42 93q-48 91 -48 240v44q0 168 55 254.5t152 86.5q65 0 113 -42zM168 327v-39l100 243q-13 47 -43 47q-19 0 -30.5 -15.5t-19 -62t-7.5 -126.5v-47zM225 123
q19 0 30.5 16t18.5 62t7 126v47q0 25 -1 37l-99 -242q13 -46 44 -46z" />
    <glyph glyph-name="Ugrave" unicode="&#xd9;" horiz-adv-x="437" 
d="M274 726h-103l-105 77l136 41zM218 -11q-88 0 -140 55t-52 165v491h150v-502q0 -70 43 -70t43 70v502h150v-490q0 -110 -53 -165.5t-141 -55.5z" />
    <glyph glyph-name="Uacute" unicode="&#xda;" horiz-adv-x="437" 
d="M163 726l72 118l137 -41l-106 -77h-103zM218 -11q-88 0 -140 55t-52 165v491h150v-502q0 -70 43 -70t43 70v502h150v-490q0 -110 -53 -165.5t-141 -55.5z" />
    <glyph glyph-name="Ucircumflex" unicode="&#xdb;" horiz-adv-x="437" 
d="M218 -11q-88 0 -140 55t-52 165v491h150v-502q0 -70 43 -70t43 70v502h150v-490q0 -110 -53 -165.5t-141 -55.5zM88 726l74 111h114l74 -111h-91l-41 41l-40 -41h-90z" />
    <glyph glyph-name="Udieresis" unicode="&#xdc;" horiz-adv-x="437" 
d="M236 728v110h117v-110h-117zM86 728v110h116v-110h-116zM218 -11q-88 0 -140 55t-52 165v491h150v-502q0 -70 43 -70t43 70v502h150v-490q0 -110 -53 -165.5t-141 -55.5z" />
    <glyph glyph-name="Yacute" unicode="&#xdd;" horiz-adv-x="409" 
d="M130 0v261l-134 439h154l57 -246l56 246h150l-133 -439v-261h-150zM149 726l72 118l137 -41l-106 -77h-103z" />
    <glyph glyph-name="Thorn" unicode="&#xde;" horiz-adv-x="411" 
d="M28 0v700h149v-91h2q94 0 158 -59t64 -178v-9q0 -119 -64 -179.5t-156 -63.5h-4v-120h-149zM177 253h2q73 3 73 105v12q0 106 -72 106h-3v-223z" />
    <glyph glyph-name="germandbls" unicode="&#xdf;" horiz-adv-x="432" 
d="M214 -3v125q58 9 58 90v3q0 78 -58 94v107q45 29 45 100v6q0 67 -42 67q-44 0 -44 -93v-496h-146v495q0 101 48.5 159t143.5 58q89 0 136 -49t47 -123v-9q0 -103 -81 -154q96 -51 96 -169v-6q0 -199 -203 -205z" />
    <glyph glyph-name="agrave" unicode="&#xe0;" horiz-adv-x="376" 
d="M118 -10q-48 0 -78 43t-30 118v17q0 87 34 129t91 42q39 0 74 -20v21q0 75 -72 75q-45 0 -99 -27v136q61 25 131 25q89 0 135 -46q50 -50 50 -150v-353h-145v51q-34 -61 -91 -61zM176 100q14 0 24 12t10 35v83q-18 9 -32 9q-34 0 -34 -61v-20q0 -58 32 -58zM151 578
l-111 95l122 43l78 -138h-89z" />
    <glyph glyph-name="aacute" unicode="&#xe1;" horiz-adv-x="376" 
d="M118 -10q-48 0 -78 43t-30 118v17q0 87 34 129t91 42q39 0 74 -20v21q0 75 -72 75q-45 0 -99 -27v136q61 25 131 25q89 0 135 -46q50 -50 50 -150v-353h-145v51q-34 -61 -91 -61zM176 100q14 0 24 12t10 35v83q-18 9 -32 9q-34 0 -34 -61v-20q0 -58 32 -58zM136 578
l77 138l123 -43l-111 -95h-89z" />
    <glyph glyph-name="acircumflex" unicode="&#xe2;" horiz-adv-x="376" 
d="M118 -10q-48 0 -78 43t-30 118v17q0 87 34 129t91 42q39 0 74 -20v21q0 75 -72 75q-45 0 -99 -27v136q61 25 131 25q89 0 135 -46q50 -50 50 -150v-353h-145v51q-34 -61 -91 -61zM176 100q14 0 24 12t10 35v83q-18 9 -32 9q-34 0 -34 -61v-20q0 -58 32 -58zM57 578
l79 128h104l79 -128h-86l-46 51l-46 -51h-84z" />
    <glyph glyph-name="atilde" unicode="&#xe3;" horiz-adv-x="376" 
d="M118 -10q-48 0 -78 43t-30 118v17q0 87 34 129t91 42q39 0 74 -20v21q0 75 -72 75q-45 0 -99 -27v136q61 25 131 25q89 0 135 -46q50 -50 50 -150v-353h-145v51q-34 -61 -91 -61zM176 100q14 0 24 12t10 35v83q-18 9 -32 9q-34 0 -34 -61v-20q0 -58 32 -58zM260 576
q-20 0 -64 17q-39 15 -49 15q-12 0 -17.5 -7.5t-10.5 -28.5l-70 14q10 115 73 115q17 0 64 -18q39 -15 49 -15q12 0 17.5 8t10.5 28l70 -14q-10 -114 -73 -114z" />
    <glyph glyph-name="adieresis" unicode="&#xe4;" horiz-adv-x="376" 
d="M118 -10q-48 0 -78 43t-30 118v17q0 87 34 129t91 42q39 0 74 -20v21q0 75 -72 75q-45 0 -99 -27v136q61 25 131 25q89 0 135 -46q50 -50 50 -150v-353h-145v51q-34 -61 -91 -61zM176 100q14 0 24 12t10 35v83q-18 9 -32 9q-34 0 -34 -61v-20q0 -58 32 -58zM202 580v115
h114v-115h-114zM59 580v115h113v-115h-113z" />
    <glyph glyph-name="aring" unicode="&#xe5;" horiz-adv-x="376" 
d="M118 -10q-48 0 -78 43t-30 118v17q0 87 34 129t91 42q39 0 74 -20v21q0 75 -72 75q-45 0 -99 -27v136q61 25 131 25q89 0 135 -46q50 -50 50 -150v-353h-145v51q-34 -61 -91 -61zM176 100q14 0 24 12t10 35v83q-18 9 -32 9q-34 0 -34 -61v-20q0 -58 32 -58zM187 573
q-39 0 -66 27t-27 68q0 39 27 66t66 27t66 -26.5t27 -67.5q0 -40 -27 -67t-66 -27zM187 621q18 0 29.5 13t11.5 33t-11.5 33.5t-29.5 13.5t-29.5 -13.5t-11.5 -33.5t11.5 -33t29.5 -13z" />
    <glyph glyph-name="ae" unicode="&#xe6;" horiz-adv-x="569" 
d="M136 -10q-56 0 -91 43t-35 120v17q0 86 34 127.5t91 41.5q39 0 74 -20v21q0 75 -72 75q-43 0 -99 -27v136q61 25 131 25q76 0 118 -50q40 54 102 54q77 0 122 -70.5t45 -201.5v-73h-208q10 -87 79 -87q48 0 107 39l9 -130q-67 -42 -137 -42q-100 0 -151 92
q-18 -41 -50 -65.5t-69 -24.5zM346 308h75q0 118 -36 118t-39 -118zM180 100q14 0 27 14.5t20 40.5q-9 38 -10 72q-22 12 -39 12q-34 0 -34 -61v-20q0 -58 36 -58z" />
    <glyph glyph-name="ccedilla" unicode="&#xe7;" horiz-adv-x="309" 
d="M196 -130l-130 35l68 96q-117 49 -117 251v39q0 124 52 192.5t135 68.5q48 0 88 -18v-142q-36 21 -63 21q-65 0 -65 -126v-33q0 -126 67 -126q25 0 62 22v-138q-29 -18 -63 -22z" />
    <glyph glyph-name="egrave" unicode="&#xe8;" horiz-adv-x="381" 
d="M216 -12q-90 0 -145 69t-55 197v32q0 126 50.5 196.5t131.5 70.5q79 0 124.5 -70.5t45.5 -201.5v-73h-208q10 -87 79 -87q48 0 107 39l9 -130q-67 -42 -139 -42zM158 308h75q0 118 -36 118t-39 -118zM160 578l-111 95l122 43l78 -138h-89z" />
    <glyph glyph-name="eacute" unicode="&#xe9;" horiz-adv-x="381" 
d="M145 578l77 138l123 -43l-111 -95h-89zM216 -12q-90 0 -145 69t-55 197v32q0 126 50.5 196.5t131.5 70.5q79 0 124.5 -70.5t45.5 -201.5v-73h-208q10 -87 79 -87q48 0 107 39l9 -130q-67 -42 -139 -42zM158 308h75q0 118 -36 118t-39 -118z" />
    <glyph glyph-name="ecircumflex" unicode="&#xea;" horiz-adv-x="381" 
d="M66 578l79 128h104l79 -128h-86l-46 51l-46 -51h-84zM216 -12q-90 0 -145 69t-55 197v32q0 126 50.5 196.5t131.5 70.5q79 0 124.5 -70.5t45.5 -201.5v-73h-208q10 -87 79 -87q48 0 107 39l9 -130q-67 -42 -139 -42zM158 308h75q0 118 -36 118t-39 -118z" />
    <glyph glyph-name="edieresis" unicode="&#xeb;" horiz-adv-x="381" 
d="M212 580v115h114v-115h-114zM69 580v115h113v-115h-113zM216 -12q-90 0 -145 69t-55 197v32q0 126 50.5 196.5t131.5 70.5q79 0 124.5 -70.5t45.5 -201.5v-73h-208q10 -87 79 -87q48 0 107 39l9 -130q-67 -42 -139 -42zM158 308h75q0 118 -36 118t-39 -118z" />
    <glyph glyph-name="igrave" unicode="&#xec;" horiz-adv-x="200" 
d="M27 0v541h146v-541h-146zM64 572l-111 95l122 43l78 -138h-89z" />
    <glyph glyph-name="iacute" unicode="&#xed;" horiz-adv-x="200" 
d="M49 572l77 138l123 -43l-111 -95h-89zM27 0v541h146v-541h-146z" />
    <glyph glyph-name="icircumflex" unicode="&#xee;" horiz-adv-x="200" 
d="M-30 572l79 128h104l79 -128h-86l-46 51l-46 -51h-84zM27 0v541h146v-541h-146z" />
    <glyph glyph-name="idieresis" unicode="&#xef;" horiz-adv-x="200" 
d="M115 574v115h114v-115h-114zM-28 574v115h113v-115h-113zM27 0v541h146v-541h-146z" />
    <glyph glyph-name="eth" unicode="&#xf0;" 
d="M351 642l-46 -15q78 -138 78 -314v-32q0 -146 -48.5 -220t-136.5 -74q-83 0 -132 69.5t-49 195.5v47q0 119 38.5 183t91.5 64q36 0 73 -34q-13 34 -37 75l-70 -22l-25 70l50 16q-20 25 -54 59h161l16 -19l65 21zM200 116q39 0 39 133v44q0 132 -39 132q-37 0 -37 -132
v-44q0 -133 37 -133z" />
    <glyph glyph-name="ntilde" unicode="&#xf1;" 
d="M26 0v541h146v-62q38 73 101 73q52 0 79 -36.5t27 -99.5v-416h-146v377q0 44 -30 44q-14 0 -22.5 -11.5t-8.5 -32.5v-377h-146zM275 576q-20 0 -64 17q-39 15 -49 15q-12 0 -17.5 -7.5t-10.5 -28.5l-70 14q10 115 73 115q17 0 64 -18q39 -15 49 -15q12 0 17.5 8t10.5 28
l70 -14q-10 -114 -73 -114z" />
    <glyph glyph-name="ograve" unicode="&#xf2;" 
d="M201 -13q-83 0 -133.5 68t-50.5 194v42q0 126 50.5 194t134.5 68q83 0 133 -68t50 -194v-42q0 -126 -50 -194t-134 -68zM201 117q39 0 39 131v45q0 131 -39 131q-38 0 -38 -131v-45q0 -131 38 -131zM165 578l-111 95l122 43l78 -138h-89z" />
    <glyph glyph-name="oacute" unicode="&#xf3;" 
d="M150 578l77 138l123 -43l-111 -95h-89zM201 -13q-83 0 -133.5 68t-50.5 194v42q0 126 50.5 194t134.5 68q83 0 133 -68t50 -194v-42q0 -126 -50 -194t-134 -68zM201 117q39 0 39 131v45q0 131 -39 131q-38 0 -38 -131v-45q0 -131 38 -131z" />
    <glyph glyph-name="ocircumflex" unicode="&#xf4;" 
d="M71 578l79 128h104l79 -128h-86l-46 51l-46 -51h-84zM201 -13q-83 0 -133.5 68t-50.5 194v42q0 126 50.5 194t134.5 68q83 0 133 -68t50 -194v-42q0 -126 -50 -194t-134 -68zM201 117q39 0 39 131v45q0 131 -39 131q-38 0 -38 -131v-45q0 -131 38 -131z" />
    <glyph glyph-name="otilde" unicode="&#xf5;" 
d="M201 -13q-83 0 -133.5 68t-50.5 194v42q0 126 50.5 194t134.5 68q83 0 133 -68t50 -194v-42q0 -126 -50 -194t-134 -68zM201 117q39 0 39 131v45q0 131 -39 131q-38 0 -38 -131v-45q0 -131 38 -131zM274 576q-20 0 -64 17q-39 15 -49 15q-12 0 -17.5 -7.5t-10.5 -28.5
l-70 14q10 115 73 115q17 0 64 -18q39 -15 49 -15q12 0 17.5 8t10.5 28l70 -14q-10 -114 -73 -114z" />
    <glyph glyph-name="odieresis" unicode="&#xf6;" 
d="M216 580v115h114v-115h-114zM73 580v115h113v-115h-113zM201 -13q-83 0 -133.5 68t-50.5 194v42q0 126 50.5 194t134.5 68q83 0 133 -68t50 -194v-42q0 -126 -50 -194t-134 -68zM201 117q39 0 39 131v45q0 131 -39 131q-38 0 -38 -131v-45q0 -131 38 -131z" />
    <glyph glyph-name="divide" unicode="&#xf7;" horiz-adv-x="408" 
d="M137 463v126h134v-126h-134zM386 288h-364v128h364v-128zM137 116v126h134v-126h-134z" />
    <glyph glyph-name="oslash" unicode="&#xf8;" 
d="M322 544h70l-45 -81q38 -68 38 -172v-42q0 -126 -50 -194t-134 -68q-61 0 -105 38l-16 -29h-69l44 80q-38 68 -38 173v42q0 126 50.5 194t134.5 68q60 0 104 -39zM157 246v-5l77 153q-10 34 -33 34q-44 0 -44 -134v-48zM201 112q44 0 44 134v48v4l-77 -153q10 -33 33 -33
z" />
    <glyph glyph-name="ugrave" unicode="&#xf9;" 
d="M129 -11q-52 0 -79 37t-27 99v416h146v-376q0 -45 30 -45q14 0 22.5 12t8.5 33v376h146v-541h-146v62q-38 -73 -101 -73zM163 570l-111 95l122 43l78 -138h-89z" />
    <glyph glyph-name="uacute" unicode="&#xfa;" 
d="M148 570l77 138l123 -43l-111 -95h-89zM129 -11q-52 0 -79 37t-27 99v416h146v-376q0 -45 30 -45q14 0 22.5 12t8.5 33v376h146v-541h-146v62q-38 -73 -101 -73z" />
    <glyph glyph-name="ucircumflex" unicode="&#xfb;" 
d="M69 570l79 128h104l79 -128h-86l-46 51l-46 -51h-84zM129 -11q-52 0 -79 37t-27 99v416h146v-376q0 -45 30 -45q14 0 22.5 12t8.5 33v376h146v-541h-146v62q-38 -73 -101 -73z" />
    <glyph glyph-name="udieresis" unicode="&#xfc;" 
d="M214 572v115h114v-115h-114zM71 572v115h113v-115h-113zM129 -11q-52 0 -79 37t-27 99v416h146v-376q0 -45 30 -45q14 0 22.5 12t8.5 33v376h146v-541h-146v62q-38 -73 -101 -73z" />
    <glyph glyph-name="yacute" unicode="&#xfd;" horiz-adv-x="383" 
d="M192 246l46 295h144l-155 -671h-143l34 144l-116 527h145zM140 570l77 138l123 -43l-111 -95h-89z" />
    <glyph glyph-name="thorn" unicode="&#xfe;" horiz-adv-x="411" 
d="M26 -130v840h146v-232q20 35 42 54.5t57 19.5q120 0 120 -255v-53q0 -255 -120 -255q-35 0 -57 19.5t-42 54.5v-193h-146zM209 122q36 0 36 120v57q0 120 -36 120q-38 0 -38 -120v-57q0 -120 38 -120z" />
    <glyph glyph-name="ydieresis" unicode="&#xff;" horiz-adv-x="383" 
d="M192 246l46 295h144l-155 -671h-143l34 144l-116 527h145zM207 572v115h114v-115h-114zM64 572v115h113v-115h-113z" />
    <glyph glyph-name="Amacron" unicode="&#x100;" horiz-adv-x="431" 
d="M-4 0l134 702h172l133 -702h-150l-19 126h-105l-19 -126h-146zM180 254h67l-33 220zM87 737v92h259v-92h-259z" />
    <glyph glyph-name="amacron" unicode="&#x101;" horiz-adv-x="376" 
d="M118 -10q-48 0 -78 43t-30 118v17q0 87 34 129t91 42q39 0 74 -20v21q0 75 -72 75q-45 0 -99 -27v136q61 25 131 25q89 0 135 -46q50 -50 50 -150v-353h-145v51q-34 -61 -91 -61zM176 100q14 0 24 12t10 35v83q-18 9 -32 9q-34 0 -34 -61v-20q0 -58 32 -58zM63 581v90
h248v-90h-248z" />
    <glyph glyph-name="Abreve" unicode="&#x102;" horiz-adv-x="431" 
d="M-4 0l134 702h172l133 -702h-150l-19 126h-105l-19 -126h-146zM180 254h67l-33 220zM216 730q-54 0 -86.5 27t-34.5 81h80q6 -33 41 -33q34 0 42 33h80q-3 -54 -35.5 -81t-86.5 -27z" />
    <glyph glyph-name="abreve" unicode="&#x103;" horiz-adv-x="376" 
d="M118 -10q-48 0 -78 43t-30 118v17q0 87 34 129t91 42q39 0 74 -20v21q0 75 -72 75q-45 0 -99 -27v136q61 25 131 25q89 0 135 -46q50 -50 50 -150v-353h-145v51q-34 -61 -91 -61zM176 100q14 0 24 12t10 35v83q-18 9 -32 9q-34 0 -34 -61v-20q0 -58 32 -58zM187 574
q-53 0 -86.5 30t-38.5 89h80q6 -43 45 -43t45 43h80q-4 -59 -38 -89t-87 -30z" />
    <glyph glyph-name="Aogonek" unicode="&#x104;" horiz-adv-x="431" 
d="M442 -66v-77q-24 -4 -54 -4q-111 0 -111 67q0 41 39 80h-31l-19 126h-105l-19 -126h-146l134 702h172l133 -702h-21q-17 -24 -17 -40q0 -13 9.5 -18.5t35.5 -7.5zM180 254h67l-33 220z" />
    <glyph glyph-name="aogonek" unicode="&#x105;" horiz-adv-x="376" 
d="M362 -66v-77q-24 -4 -54 -4q-111 0 -111 67q0 41 39 80h-27v51q-34 -61 -91 -61q-48 0 -78 43t-30 118v17q0 87 34 129t91 42q39 0 74 -20v21q0 75 -72 75q-45 0 -99 -27v136q61 25 131 25q89 0 135 -46q50 -50 50 -150v-353h-20q-17 -24 -17 -40q0 -13 9.5 -18.5
t35.5 -7.5zM176 100q14 0 24 12t10 35v83q-18 9 -32 9q-34 0 -34 -61v-20q0 -58 32 -58z" />
    <glyph glyph-name="Cacute" unicode="&#x106;" horiz-adv-x="363" 
d="M239 -8q-98 0 -159.5 85.5t-61.5 254.5v35q0 173 65.5 257t165.5 84q50 0 91 -19v-151q-42 25 -76 25q-93 0 -93 -200v-26q0 -115 24.5 -157t72.5 -42q31 0 75 25v-144q-45 -27 -104 -27zM168 734l72 118l137 -41l-106 -77h-103z" />
    <glyph glyph-name="cacute" unicode="&#x107;" horiz-adv-x="309" 
d="M139 578l77 138l123 -43l-111 -95h-89zM202 -12q-87 0 -136 68.5t-49 195.5v39q0 124 52 192.5t135 68.5q48 0 88 -18v-142q-36 21 -63 21q-65 0 -65 -126v-33q0 -126 67 -126q25 0 62 22v-138q-42 -24 -91 -24z" />
    <glyph glyph-name="Cdotaccent" unicode="&#x10a;" horiz-adv-x="363" 
d="M163 736v110h122v-110h-122zM239 -8q-98 0 -159.5 85.5t-61.5 254.5v35q0 173 65.5 257t165.5 84q50 0 91 -19v-151q-42 25 -76 25q-93 0 -93 -200v-26q0 -115 24.5 -157t72.5 -42q31 0 75 25v-144q-45 -27 -104 -27z" />
    <glyph glyph-name="cdotaccent" unicode="&#x10b;" horiz-adv-x="309" 
d="M202 -12q-87 0 -136 68.5t-49 195.5v39q0 124 52 192.5t135 68.5q48 0 88 -18v-142q-36 21 -63 21q-65 0 -65 -126v-33q0 -126 67 -126q25 0 62 22v-138q-42 -24 -91 -24zM130 580v115h120v-115h-120z" />
    <glyph glyph-name="Ccaron" unicode="&#x10c;" horiz-adv-x="363" 
d="M239 -8q-98 0 -159.5 85.5t-61.5 254.5v35q0 173 65.5 257t165.5 84q50 0 91 -19v-151q-42 25 -76 25q-93 0 -93 -200v-26q0 -115 24.5 -157t72.5 -42q31 0 75 25v-144q-45 -27 -104 -27zM355 845l-74 -111h-114l-74 111h91l41 -41l40 41h90z" />
    <glyph glyph-name="ccaron" unicode="&#x10d;" horiz-adv-x="309" 
d="M321 706l-78 -128h-105l-78 128h85l46 -50l46 50h84zM202 -12q-87 0 -136 68.5t-49 195.5v39q0 124 52 192.5t135 68.5q48 0 88 -18v-142q-36 21 -63 21q-65 0 -65 -126v-33q0 -126 67 -126q25 0 62 22v-138q-42 -24 -91 -24z" />
    <glyph glyph-name="Dcaron" unicode="&#x10e;" horiz-adv-x="447" 
d="M28 0v700h140q128 0 194.5 -85t66.5 -248v-34q0 -163 -66.5 -248t-194.5 -85h-140zM276 368q0 108 -26 151t-72 43v-424q98 0 98 194v36zM347 839l-74 -111h-114l-74 111h91l41 -41l40 41h90z" />
    <glyph glyph-name="dcaron" unicode="&#x10f;" horiz-adv-x="411" 
d="M406 563l9 147h85v-1l-39 -146h-55zM140 -11q-120 0 -120 255v53q0 255 120 255q35 0 57 -19t42 -54v231h146v-710h-146v64q-20 -36 -42 -55.5t-57 -19.5zM202 122q38 0 38 120v57q0 120 -38 120q-36 0 -36 -120v-57q0 -120 36 -120z" />
    <glyph glyph-name="Dcroat" unicode="&#x110;" horiz-adv-x="461" 
d="M42 0v288h-35v129h35v283h140q128 0 194.5 -85t66.5 -248v-34q0 -163 -66.5 -248t-194.5 -85h-140zM238 289h-48v-151h2q98 0 98 194v36q0 108 -26 151t-72 43h-2v-147h48v-126z" />
    <glyph glyph-name="dcroat" unicode="&#x111;" horiz-adv-x="411" 
d="M168 576v95h71v39h146v-39h27v-98h-27v-573h-146v64q-20 -36 -42 -55.5t-57 -19.5q-120 0 -120 255v53q0 255 120 255q35 0 57 -19t42 -54v97h-71zM202 122q38 0 38 120v57q0 120 -38 120q-36 0 -36 -120v-57q0 -120 36 -120z" />
    <glyph glyph-name="Emacron" unicode="&#x112;" horiz-adv-x="352" 
d="M52 731v92h259v-92h-259zM28 0v700h303v-142h-153v-136h136v-140h-136v-139h156v-143h-306z" />
    <glyph glyph-name="emacron" unicode="&#x113;" horiz-adv-x="381" 
d="M216 -12q-90 0 -145 69t-55 197v32q0 126 50.5 196.5t131.5 70.5q79 0 124.5 -70.5t45.5 -201.5v-73h-208q10 -87 79 -87q48 0 107 39l9 -130q-67 -42 -139 -42zM158 308h75q0 118 -36 118t-39 -118zM73 581v90h248v-90h-248z" />
    <glyph glyph-name="Ebreve" unicode="&#x114;" horiz-adv-x="352" 
d="M181 724q-54 0 -86.5 27t-34.5 81h80q6 -33 41 -33t42 33h80q-3 -54 -35.5 -81t-86.5 -27zM28 0v700h303v-142h-153v-136h136v-140h-136v-139h156v-143h-306z" />
    <glyph glyph-name="ebreve" unicode="&#x115;" horiz-adv-x="381" 
d="M216 -12q-90 0 -145 69t-55 197v32q0 126 50.5 196.5t131.5 70.5q79 0 124.5 -70.5t45.5 -201.5v-73h-208q10 -87 79 -87q48 0 107 39l9 -130q-67 -42 -139 -42zM158 308h75q0 118 -36 118t-39 -118zM197 574q-53 0 -86.5 30t-38.5 89h80q6 -43 45 -43t45 43h80
q-4 -59 -38 -89t-87 -30z" />
    <glyph glyph-name="Edotaccent" unicode="&#x116;" horiz-adv-x="352" 
d="M120 730v110h122v-110h-122zM28 0v700h303v-142h-153v-136h136v-140h-136v-139h156v-143h-306z" />
    <glyph glyph-name="edotaccent" unicode="&#x117;" horiz-adv-x="381" 
d="M216 -12q-90 0 -145 69t-55 197v32q0 126 50.5 196.5t131.5 70.5q79 0 124.5 -70.5t45.5 -201.5v-73h-208q10 -87 79 -87q48 0 107 39l9 -130q-67 -42 -139 -42zM158 308h75q0 118 -36 118t-39 -118zM137 580v115h120v-115h-120z" />
    <glyph glyph-name="Eogonek" unicode="&#x118;" horiz-adv-x="352" 
d="M28 0v700h303v-142h-153v-136h136v-140h-136v-139h156v-143h-26q-17 -24 -17 -40q0 -13 9.5 -18.5t35.5 -7.5v-77q-24 -4 -54 -4q-111 0 -111 67q0 41 39 80h-182z" />
    <glyph glyph-name="eogonek" unicode="&#x119;" horiz-adv-x="381" 
d="M346 160l9 -127q-46 -47 -46 -73q0 -13 10 -18.5t35 -7.5v-77q-23 -4 -53 -4q-111 0 -111 67q0 36 30 70h-4q-90 0 -145 68.5t-55 195.5v32q0 126 50.5 196.5t131.5 70.5q79 0 124.5 -70.5t45.5 -201.5v-73h-208q10 -87 79 -87q48 0 107 39zM158 308h75q0 118 -36 118
t-39 -118z" />
    <glyph glyph-name="Ecaron" unicode="&#x11a;" horiz-adv-x="352" 
d="M312 839l-74 -111h-114l-74 111h91l41 -41l40 41h90zM28 0v700h303v-142h-153v-136h136v-140h-136v-139h156v-143h-306z" />
    <glyph glyph-name="ecaron" unicode="&#x11b;" horiz-adv-x="381" 
d="M328 706l-78 -128h-105l-78 128h85l46 -50l46 50h84zM216 -12q-90 0 -145 69t-55 197v32q0 126 50.5 196.5t131.5 70.5q79 0 124.5 -70.5t45.5 -201.5v-73h-208q10 -87 79 -87q48 0 107 39l9 -130q-67 -42 -139 -42zM158 308h75q0 118 -36 118t-39 -118z" />
    <glyph glyph-name="Gbreve" unicode="&#x11e;" horiz-adv-x="431" 
d="M247 730q-54 0 -86.5 27t-34.5 81h80q6 -33 41 -33t42 33h80q-3 -54 -35.5 -81t-86.5 -27zM255 -10q-105 0 -171 85.5t-66 254.5v40q0 163 69.5 251.5t180.5 88.5q65 0 114 -26v-152q-55 35 -102 35q-51 0 -80 -47.5t-29 -145.5v-48q0 -199 87 -199q4 0 12 2v149h-53v132
h189v-380q-82 -40 -151 -40z" />
    <glyph glyph-name="gbreve" unicode="&#x11f;" horiz-adv-x="411" 
d="M176 -134q-69 0 -134 18v129q64 -23 121 -23q78 0 78 78v42q-45 -72 -101 -72q-120 0 -120 244v21q0 249 120 249q35 0 57 -19t42 -54v62h146v-472q0 -101 -50 -151q-52 -52 -159 -52zM202 168q38 0 38 116v19q0 116 -38 116q-36 0 -36 -116v-19q0 -116 36 -116zM215 574
q-53 0 -86.5 30t-38.5 89h80q6 -43 45 -43t45 43h80q-4 -59 -38 -89t-87 -30z" />
    <glyph glyph-name="Gdotaccent" unicode="&#x120;" horiz-adv-x="431" 
d="M186 736v110h122v-110h-122zM255 -10q-105 0 -171 85.5t-66 254.5v40q0 163 69.5 251.5t180.5 88.5q65 0 114 -26v-152q-55 35 -102 35q-51 0 -80 -47.5t-29 -145.5v-48q0 -199 87 -199q4 0 12 2v149h-53v132h189v-380q-82 -40 -151 -40z" />
    <glyph glyph-name="gdotaccent" unicode="&#x121;" horiz-adv-x="411" 
d="M176 -134q-69 0 -134 18v129q64 -23 121 -23q78 0 78 78v42q-45 -72 -101 -72q-120 0 -120 244v21q0 249 120 249q35 0 57 -19t42 -54v62h146v-472q0 -101 -50 -151q-52 -52 -159 -52zM202 168q38 0 38 116v19q0 116 -38 116q-36 0 -36 -116v-19q0 -116 36 -116zM155 580
v115h120v-115h-120z" />
    <glyph glyph-name="Gcommaaccent" unicode="&#x122;" horiz-adv-x="431" 
d="M189 -226l-8 42q60 9 61 47h-56v97h117v-82q0 -91 -114 -104zM255 -10q-105 0 -171 85.5t-66 254.5v40q0 163 69.5 251.5t180.5 88.5q65 0 114 -26v-152q-55 35 -102 35q-51 0 -80 -47.5t-29 -145.5v-48q0 -199 87 -199q4 0 12 2v149h-53v132h189v-380q-82 -40 -151 -40z
" />
    <glyph glyph-name="gcommaaccent" unicode="&#x123;" horiz-adv-x="411" 
d="M269 766l8 -42q-60 -9 -61 -47h56v-97h-117v82q0 91 114 104zM176 -134q-69 0 -134 18v129q64 -23 121 -23q78 0 78 78v42q-45 -72 -101 -72q-120 0 -120 244v21q0 249 120 249q35 0 57 -19t42 -54v62h146v-472q0 -101 -50 -151q-52 -52 -159 -52zM202 168q38 0 38 116
v19q0 116 -38 116q-36 0 -36 -116v-19q0 -116 36 -116z" />
    <glyph glyph-name="Hbar" unicode="&#x126;" horiz-adv-x="473" 
d="M7 511v119h35v70h150v-73h90v73h150v-70h34v-119h-34v-511h-150v281h-90v-281h-150v511h-35zM192 421h90v93h-90v-93z" />
    <glyph glyph-name="hbar" unicode="&#x127;" 
d="M243 576h-71v-97q38 73 101 73q52 0 79 -36.5t27 -99.5v-416h-146v377q0 44 -30 44q-14 0 -22.5 -11.5t-8.5 -32.5v-377h-146v573h-28v98h28v39h146v-39h71v-95z" />
    <glyph glyph-name="Imacron" unicode="&#x12a;" horiz-adv-x="209" 
d="M30 0v700h150v-700h-150zM-24 731v92h259v-92h-259z" />
    <glyph glyph-name="imacron" unicode="&#x12b;" horiz-adv-x="200" 
d="M27 0v541h146v-541h-146zM-24 575v90h248v-90h-248z" />
    <glyph glyph-name="Ibreve" unicode="&#x12c;" horiz-adv-x="209" 
d="M30 0v700h150v-700h-150zM105 724q-54 0 -86.5 27t-34.5 81h80q6 -33 41 -33t42 33h80q-3 -54 -35.5 -81t-86.5 -27z" />
    <glyph glyph-name="ibreve" unicode="&#x12d;" horiz-adv-x="200" 
d="M27 0v541h146v-541h-146zM100 568q-53 0 -86.5 30t-38.5 89h80q6 -43 45 -43t45 43h80q-4 -59 -38 -89t-87 -30z" />
    <glyph glyph-name="Iogonek" unicode="&#x12e;" horiz-adv-x="209" 
d="M30 0v700h150v-700h-23q-17 -24 -17 -40q0 -13 9.5 -18.5t35.5 -7.5v-77q-24 -4 -54 -4q-111 0 -111 67q0 41 39 80h-29z" />
    <glyph glyph-name="iogonek" unicode="&#x12f;" horiz-adv-x="200" 
d="M27 0v541h146v-541h-20q-17 -24 -17 -40q0 -13 9.5 -18.5t35.5 -7.5v-77q-24 -4 -54 -4q-111 0 -111 67q0 41 39 80h-28zM26 582v128h148v-128h-148z" />
    <glyph glyph-name="Idotaccent" unicode="&#x130;" horiz-adv-x="209" 
d="M30 0v700h150v-700h-150zM44 730v110h122v-110h-122z" />
    <glyph glyph-name="dotlessi" unicode="&#x131;" horiz-adv-x="200" 
d="M27 0v541h146v-541h-146z" />
    <glyph glyph-name="Kcommaaccent" unicode="&#x136;" horiz-adv-x="426" 
d="M162 -218l-8 42q60 9 61 47h-56v97h117v-82q0 -91 -114 -104zM29 0v700h150v-266l84 266h157l-110 -296l113 -404h-158l-64 246l-22 -64v-182h-150z" />
    <glyph glyph-name="kcommaaccent" unicode="&#x137;" horiz-adv-x="387" 
d="M141 -218l-8 42q60 9 61 47h-56v97h117v-82q0 -91 -114 -104zM26 0v710h146v-352l63 183h151l-87 -221l87 -320h-153l-44 193l-17 -45v-148h-146z" />
    <glyph glyph-name="Lacute" unicode="&#x139;" horiz-adv-x="322" 
d="M60 727l72 118l137 -41l-106 -77h-103zM28 0v700h150v-557h133v-143h-283z" />
    <glyph glyph-name="lacute" unicode="&#x13a;" horiz-adv-x="200" 
d="M50 733l72 118l137 -41l-106 -77h-103zM27 0v710h146v-710h-146z" />
    <glyph glyph-name="Lcommaaccent" unicode="&#x13b;" horiz-adv-x="322" 
d="M115 -220l-8 42q60 9 61 47h-56v97h117v-82q0 -91 -114 -104zM28 0v700h150v-557h133v-143h-283z" />
    <glyph glyph-name="lcommaaccent" unicode="&#x13c;" horiz-adv-x="200" 
d="M46 -220l-8 42q60 9 61 47h-56v97h117v-82q0 -91 -114 -104zM27 0v710h146v-710h-146z" />
    <glyph glyph-name="Lcaron" unicode="&#x13d;" horiz-adv-x="322" 
d="M199 553l9 147h85v-1l-39 -146h-55zM28 0v700h150v-557h133v-143h-283z" />
    <glyph glyph-name="lcaron" unicode="&#x13e;" horiz-adv-x="200" 
d="M194 563l9 147h85v-1l-39 -146h-55zM27 0v710h146v-710h-146z" />
    <glyph glyph-name="Ldot" unicode="&#x13f;" horiz-adv-x="322" 
d="M209 306v136h110v-136h-110zM28 0v700h150v-557h133v-143h-283z" />
    <glyph glyph-name="ldot" unicode="&#x140;" horiz-adv-x="309" 
d="M202 288v136h105v-136h-105zM27 0v710h146v-710h-146z" />
    <glyph glyph-name="Lslash" unicode="&#x141;" horiz-adv-x="346" 
d="M265 348l-73 -39v-166h133v-143h-283v228l-35 -19v150l35 18v323h150v-242l73 40v-150z" />
    <glyph glyph-name="lslash" unicode="&#x142;" horiz-adv-x="241" 
d="M235 349l-41 -23v-326h-146v245l-42 -23v143l42 23v322h146v-241l41 23v-143z" />
    <glyph glyph-name="Nacute" unicode="&#x143;" horiz-adv-x="453" 
d="M171 726l72 118l137 -41l-106 -77h-103zM28 0v700h144l109 -316v316h144v-700h-137l-116 333v-333h-144z" />
    <glyph glyph-name="nacute" unicode="&#x144;" 
d="M151 578l77 138l123 -43l-111 -95h-89zM26 0v541h146v-62q38 73 101 73q52 0 79 -36.5t27 -99.5v-416h-146v377q0 44 -30 44q-14 0 -22.5 -11.5t-8.5 -32.5v-377h-146z" />
    <glyph glyph-name="Ncommaaccent" unicode="&#x145;" horiz-adv-x="453" 
d="M172 -218l-8 42q60 9 61 47h-56v97h117v-82q0 -91 -114 -104zM28 0v700h144l109 -316v316h144v-700h-137l-116 333v-333h-144z" />
    <glyph glyph-name="ncommaaccent" unicode="&#x146;" 
d="M148 -218l-8 42q60 9 61 47h-56v97h117v-82q0 -91 -114 -104zM26 0v541h146v-62q38 73 101 73q52 0 79 -36.5t27 -99.5v-416h-146v377q0 44 -30 44q-14 0 -22.5 -11.5t-8.5 -32.5v-377h-146z" />
    <glyph glyph-name="Ncaron" unicode="&#x147;" horiz-adv-x="453" 
d="M358 837l-74 -111h-114l-74 111h91l41 -41l40 41h90zM28 0v700h144l109 -316v316h144v-700h-137l-116 333v-333h-144z" />
    <glyph glyph-name="ncaron" unicode="&#x148;" 
d="M333 706l-78 -128h-105l-78 128h85l46 -50l46 50h84zM26 0v541h146v-62q38 73 101 73q52 0 79 -36.5t27 -99.5v-416h-146v377q0 44 -30 44q-14 0 -22.5 -11.5t-8.5 -32.5v-377h-146z" />
    <glyph glyph-name="Omacron" unicode="&#x14c;" horiz-adv-x="449" 
d="M96 737v92h259v-92h-259zM225 -13q-97 0 -152 87t-55 254v44q0 168 55 254.5t152 86.5t151.5 -86.5t54.5 -254.5v-44q0 -167 -54.5 -254t-151.5 -87zM225 126q18 0 29 15t17.5 60.5t6.5 125.5v47q0 79 -6.5 124.5t-17.5 61t-29 15.5t-29 -15.5t-18 -61t-7 -124.5v-47
q0 -80 7 -125.5t18 -60.5t29 -15z" />
    <glyph glyph-name="omacron" unicode="&#x14d;" 
d="M77 581v90h248v-90h-248zM201 -13q-83 0 -133.5 68t-50.5 194v42q0 126 50.5 194t134.5 68q83 0 133 -68t50 -194v-42q0 -126 -50 -194t-134 -68zM201 117q39 0 39 131v45q0 131 -39 131q-38 0 -38 -131v-45q0 -131 38 -131z" />
    <glyph glyph-name="Obreve" unicode="&#x14e;" horiz-adv-x="449" 
d="M225 730q-54 0 -86.5 27t-34.5 81h80q6 -33 41 -33t42 33h80q-3 -54 -35.5 -81t-86.5 -27zM225 -13q-97 0 -152 87t-55 254v44q0 168 55 254.5t152 86.5t151.5 -86.5t54.5 -254.5v-44q0 -167 -54.5 -254t-151.5 -87zM225 126q18 0 29 15t17.5 60.5t6.5 125.5v47
q0 79 -6.5 124.5t-17.5 61t-29 15.5t-29 -15.5t-18 -61t-7 -124.5v-47q0 -80 7 -125.5t18 -60.5t29 -15z" />
    <glyph glyph-name="obreve" unicode="&#x14f;" 
d="M201 -13q-83 0 -133.5 68t-50.5 194v42q0 126 50.5 194t134.5 68q83 0 133 -68t50 -194v-42q0 -126 -50 -194t-134 -68zM201 117q39 0 39 131v45q0 131 -39 131q-38 0 -38 -131v-45q0 -131 38 -131zM201 574q-53 0 -86.5 30t-38.5 89h80q6 -43 45 -43t45 43h80
q-4 -59 -38 -89t-87 -30z" />
    <glyph glyph-name="Ohungarumlaut" unicode="&#x150;" horiz-adv-x="449" 
d="M225 -13q-97 0 -152 87t-55 254v44q0 168 55 254.5t152 86.5t151.5 -86.5t54.5 -254.5v-44q0 -167 -54.5 -254t-151.5 -87zM225 126q18 0 29 15t17.5 60.5t6.5 125.5v47q0 79 -6.5 124.5t-17.5 61t-29 15.5t-29 -15.5t-18 -61t-7 -124.5v-47q0 -80 7 -125.5t18 -60.5
t29 -15zM241 734l39 65l-79 -65h-93l72 118l111 -36l22 36l119 -38l-99 -80h-92z" />
    <glyph glyph-name="ohungarumlaut" unicode="&#x151;" 
d="M201 -13q-83 0 -133.5 68t-50.5 194v42q0 126 50.5 194t134.5 68q83 0 133 -68t50 -194v-42q0 -126 -50 -194t-134 -68zM95 578l77 138l97 -37l21 37l106 -40l-104 -98h-79l43 77l-82 -77h-79zM201 117q39 0 39 131v45q0 131 -39 131q-38 0 -38 -131v-45q0 -131 38 -131z
" />
    <glyph glyph-name="OE" unicode="&#x152;" horiz-adv-x="594" 
d="M279 0q-128 0 -194.5 85t-66.5 248v34q0 163 66.5 248t194.5 85h294v-142h-153v-136h136v-140h-136v-139h156v-143h-297zM269 138v424q-98 0 -98 -194v-36q0 -108 26 -151t72 -43z" />
    <glyph glyph-name="oe" unicode="&#x153;" horiz-adv-x="608" 
d="M196 -13q-79 0 -129 68.5t-50 193.5v42q0 125 50 193.5t130 68.5q76 0 118 -68q42 68 115 68q74 0 119.5 -71t45.5 -201v-73h-209q11 -87 80 -87q46 0 107 39l9 -130q-69 -42 -134 -42q-84 0 -131 70q-42 -71 -121 -71zM385 308h74q0 118 -36 118q-37 0 -38 -118z
M201 117q39 0 39 131v45q0 131 -39 131q-38 0 -38 -131v-45q0 -131 38 -131z" />
    <glyph glyph-name="Racute" unicode="&#x154;" horiz-adv-x="423" 
d="M28 0v700h150q113 0 172 -59q59 -61 59 -168v-10q0 -122 -82 -186l93 -277h-160l-71 228h-12v-228h-149zM177 354h5q74 0 74 99v15q0 98 -75 98h-4v-212zM150 728l72 118l137 -41l-106 -77h-103z" />
    <glyph glyph-name="racute" unicode="&#x155;" horiz-adv-x="266" 
d="M82 572l77 138l123 -43l-111 -95h-89zM26 0v541h145v-75q27 86 86 82v-175h-3q-82 0 -82 -112v-261h-146z" />
    <glyph glyph-name="Rcommaaccent" unicode="&#x156;" horiz-adv-x="423" 
d="M28 0v700h150q113 0 172 -59q59 -61 59 -168v-10q0 -122 -82 -186l93 -277h-160l-71 228h-12v-228h-149zM151 -218l-8 42q60 9 61 47h-56v97h117v-82q0 -91 -114 -104zM177 354h5q74 0 74 99v15q0 98 -75 98h-4v-212z" />
    <glyph glyph-name="rcommaaccent" unicode="&#x157;" horiz-adv-x="266" 
d="M48 -220l-8 42q60 9 61 47h-56v97h117v-82q0 -91 -114 -104zM26 0v541h145v-75q27 86 86 82v-175h-3q-82 0 -82 -112v-261h-146z" />
    <glyph glyph-name="Rcaron" unicode="&#x158;" horiz-adv-x="423" 
d="M28 0v700h150q113 0 172 -59q59 -61 59 -168v-10q0 -122 -82 -186l93 -277h-160l-71 228h-12v-228h-149zM337 839l-74 -111h-114l-74 111h91l41 -41l40 41h90zM177 354h5q74 0 74 99v15q0 98 -75 98h-4v-212z" />
    <glyph glyph-name="rcaron" unicode="&#x159;" horiz-adv-x="266" 
d="M264 700l-78 -128h-105l-78 128h85l46 -50l46 50h84zM26 0v541h145v-75q27 86 86 82v-175h-3q-82 0 -82 -112v-261h-146z" />
    <glyph glyph-name="Sacute" unicode="&#x15a;" horiz-adv-x="359" 
d="M162 -8q-78 0 -141 36v149q72 -42 123 -42q57 0 57 52v1q0 33 -61 93q-73 69 -101 115t-28 112v3q0 89 53 143t135 54q67 0 124 -25v-151q-59 34 -109 34q-24 0 -38.5 -13.5t-14.5 -35.5v-1q0 -18 12.5 -36.5t48.5 -55.5q75 -73 102 -119.5t27 -111.5v-4q0 -87 -55 -142
t-134 -55zM132 734l72 118l137 -41l-106 -77h-103z" />
    <glyph glyph-name="sacute" unicode="&#x15b;" horiz-adv-x="308" 
d="M107 578l77 138l123 -43l-111 -95h-89zM141 -11q-66 0 -126 30v139q72 -40 111 -40q34 0 34 31v1q0 13 -9.5 26t-40.5 41q-51 45 -76 83t-25 95v2q0 71 45 112.5t118 41.5q54 0 105 -18v-140q-55 29 -94 29q-34 0 -34 -27v-1q0 -11 9.5 -22.5t42.5 -42.5
q52 -46 75.5 -83.5t23.5 -93.5v-2q0 -72 -45 -116.5t-114 -44.5z" />
    <glyph glyph-name="Scedilla" unicode="&#x15e;" horiz-adv-x="359" 
d="M188 -130l-130 35l63 90q-57 7 -100 33v149q72 -42 123 -42q57 0 57 52v1q0 33 -61 93q-73 69 -101 115t-28 112v3q0 89 53 143t135 54q67 0 124 -25v-151q-59 34 -109 34q-24 0 -38.5 -13.5t-14.5 -35.5v-1q0 -18 12.5 -36.5t48.5 -55.5q75 -73 102 -119.5t27 -111.5v-4
q0 -68 -34.5 -117.5t-90.5 -68.5z" />
    <glyph glyph-name="scedilla" unicode="&#x15f;" horiz-adv-x="308" 
d="M162 -130l-130 35l62 88q-42 7 -79 26v139q72 -40 111 -40q34 0 34 31v1q0 13 -9.5 26t-40.5 41q-51 45 -76 83t-25 95v2q0 71 45 112.5t118 41.5q54 0 105 -18v-140q-55 29 -94 29q-34 0 -34 -27v-1q0 -11 9.5 -22.5t42.5 -42.5q52 -46 75.5 -83.5t23.5 -93.5v-2
q0 -55 -27.5 -95t-73.5 -56z" />
    <glyph glyph-name="Scaron" unicode="&#x160;" horiz-adv-x="359" 
d="M162 -8q-78 0 -141 36v149q72 -42 123 -42q57 0 57 52v1q0 33 -61 93q-73 69 -101 115t-28 112v3q0 89 53 143t135 54q67 0 124 -25v-151q-59 34 -109 34q-24 0 -38.5 -13.5t-14.5 -35.5v-1q0 -18 12.5 -36.5t48.5 -55.5q75 -73 102 -119.5t27 -111.5v-4q0 -87 -55 -142
t-134 -55zM318 845l-74 -111h-114l-74 111h91l41 -41l40 41h90z" />
    <glyph glyph-name="scaron" unicode="&#x161;" horiz-adv-x="308" 
d="M290 706l-78 -128h-105l-78 128h85l46 -50l46 50h84zM141 -11q-66 0 -126 30v139q72 -40 111 -40q34 0 34 31v1q0 13 -9.5 26t-40.5 41q-51 45 -76 83t-25 95v2q0 71 45 112.5t118 41.5q54 0 105 -18v-140q-55 29 -94 29q-34 0 -34 -27v-1q0 -11 9.5 -22.5t42.5 -42.5
q52 -46 75.5 -83.5t23.5 -93.5v-2q0 -72 -45 -116.5t-114 -44.5z" />
    <glyph glyph-name="Tcommaaccent" unicode="&#x162;" horiz-adv-x="356" 
d="M124 -220l-8 42q60 9 61 47h-56v97h117v-82q0 -91 -114 -104zM103 0v557h-92v143h334v-143h-92v-557h-150z" />
    <glyph glyph-name="tcommaaccent" unicode="&#x163;" horiz-adv-x="260" 
d="M84 -226l-8 42q60 9 61 47h-56v97h117v-82q0 -91 -114 -104zM161 -9q-120 0 -120 113v320h-30v117h30v132h146v-132h61v-117h-61v-275q0 -28 28 -28q13 0 32 8v-117q-40 -21 -86 -21z" />
    <glyph glyph-name="Tcaron" unicode="&#x164;" horiz-adv-x="356" 
d="M310 839l-74 -111h-114l-74 111h91l41 -41l40 41h90zM103 0v557h-92v143h334v-143h-92v-557h-150z" />
    <glyph glyph-name="tcaron" unicode="&#x165;" horiz-adv-x="260" 
d="M208 563l9 147h85v-1l-39 -146h-55zM161 -9q-120 0 -120 113v320h-30v117h30v132h146v-132h61v-117h-61v-275q0 -28 28 -28q13 0 32 8v-117q-40 -21 -86 -21z" />
    <glyph glyph-name="Umacron" unicode="&#x16a;" horiz-adv-x="437" 
d="M90 729v92h259v-92h-259zM218 -11q-88 0 -140 55t-52 165v491h150v-502q0 -70 43 -70t43 70v502h150v-490q0 -110 -53 -165.5t-141 -55.5z" />
    <glyph glyph-name="umacron" unicode="&#x16b;" 
d="M129 -11q-52 0 -79 37t-27 99v416h146v-376q0 -45 30 -45q14 0 22.5 12t8.5 33v376h146v-541h-146v62q-38 -73 -101 -73zM75 573v90h248v-90h-248z" />
    <glyph glyph-name="Ubreve" unicode="&#x16c;" horiz-adv-x="437" 
d="M219 717q-54 0 -86.5 27t-34.5 81h80q6 -33 41 -33t42 33h80q-3 -54 -35.5 -81t-86.5 -27zM218 -11q-88 0 -140 55t-52 165v491h150v-502q0 -70 43 -70t43 70v502h150v-490q0 -110 -53 -165.5t-141 -55.5z" />
    <glyph glyph-name="ubreve" unicode="&#x16d;" 
d="M129 -11q-52 0 -79 37t-27 99v416h146v-376q0 -45 30 -45q14 0 22.5 12t8.5 33v376h146v-541h-146v62q-38 -73 -101 -73zM199 564q-53 0 -86.5 30t-38.5 89h80q6 -43 45 -43t45 43h80q-4 -59 -38 -89t-87 -30z" />
    <glyph glyph-name="Uring" unicode="&#x16e;" horiz-adv-x="437" 
d="M218 -11q-88 0 -140 55t-52 165v491h150v-502q0 -70 43 -70t43 70v502h150v-490q0 -110 -53 -165.5t-141 -55.5zM219 714q-41 0 -68.5 25.5t-27.5 65.5q0 39 27.5 65t68.5 26q42 0 69 -25.5t27 -65.5t-27 -65.5t-69 -25.5zM219 761q19 0 31.5 12.5t12.5 31.5t-12.5 31.5
t-31.5 12.5t-31.5 -12.5t-12.5 -31.5t12.5 -31.5t31.5 -12.5z" />
    <glyph glyph-name="uring" unicode="&#x16f;" 
d="M199 563q-39 0 -66 27t-27 68q0 39 27 66t66 27t66 -26.5t27 -67.5q0 -40 -27 -67t-66 -27zM199 611q18 0 29.5 13t11.5 33t-11.5 33.5t-29.5 13.5t-29.5 -13.5t-11.5 -33.5t11.5 -33t29.5 -13zM129 -11q-52 0 -79 37t-27 99v416h146v-376q0 -45 30 -45q14 0 22.5 12
t8.5 33v376h146v-541h-146v62q-38 -73 -101 -73z" />
    <glyph glyph-name="Uhungarumlaut" unicode="&#x170;" horiz-adv-x="437" 
d="M218 -11q-88 0 -140 55t-52 165v491h150v-502q0 -70 43 -70t43 70v502h150v-490q0 -110 -53 -165.5t-141 -55.5zM232 726l39 65l-79 -65h-93l72 118l111 -36l22 36l119 -38l-99 -80h-92z" />
    <glyph glyph-name="uhungarumlaut" unicode="&#x171;" 
d="M129 -11q-52 0 -79 37t-27 99v416h146v-376q0 -45 30 -45q14 0 22.5 12t8.5 33v376h146v-541h-146v62q-38 -73 -101 -73zM90 570l77 138l97 -37l21 37l106 -40l-104 -98h-79l43 77l-82 -77h-79z" />
    <glyph glyph-name="Uogonek" unicode="&#x172;" horiz-adv-x="437" 
d="M298 -66v-77q-24 -4 -54 -4q-111 0 -111 67q0 37 34 74q-66 14 -103.5 68t-37.5 147v491h150v-502q0 -70 43 -70t43 70v502h150v-490q0 -95 -39.5 -149t-107.5 -67q-12 -20 -12 -34q0 -13 9.5 -18.5t35.5 -7.5z" />
    <glyph glyph-name="uogonek" unicode="&#x173;" 
d="M129 -11q-52 0 -79 37t-27 99v416h146v-376q0 -45 30 -45q14 0 22.5 12t8.5 33v376h146v-541h-20q-17 -24 -17 -40q0 -13 9.5 -18.5t35.5 -7.5v-77q-24 -4 -54 -4q-111 0 -111 67q0 41 39 80h-28v62q-38 -73 -101 -73z" />
    <glyph glyph-name="Wcircumflex" unicode="&#x174;" horiz-adv-x="630" 
d="M108 -2l-109 702h156l44 -402l53 402h129l52 -402l44 402h153l-108 -702h-157l-50 353l-51 -353h-156zM184 728l74 111h114l74 -111h-91l-41 41l-40 -41h-90z" />
    <glyph glyph-name="wcircumflex" unicode="&#x175;" horiz-adv-x="549" 
d="M144 572l79 128h104l79 -128h-86l-46 51l-46 -51h-84zM100 -2l-97 543h146l34 -282l37 282h112l36 -282l35 282h143l-96 -543h-132l-43 260l-43 -260h-132z" />
    <glyph glyph-name="Ycircumflex" unicode="&#x176;" horiz-adv-x="409" 
d="M130 0v261l-134 439h154l57 -246l56 246h150l-133 -439v-261h-150zM74 726l74 111h114l74 -111h-91l-41 41l-40 -41h-90z" />
    <glyph glyph-name="ycircumflex" unicode="&#x177;" horiz-adv-x="383" 
d="M192 246l46 295h144l-155 -671h-143l34 144l-116 527h145zM61 570l79 128h104l79 -128h-86l-46 51l-46 -51h-84z" />
    <glyph glyph-name="Ydieresis" unicode="&#x178;" horiz-adv-x="409" 
d="M130 0v261l-134 439h154l57 -246l56 246h150l-133 -439v-261h-150zM222 728v110h117v-110h-117zM72 728v110h116v-110h-116z" />
    <glyph glyph-name="Zacute" unicode="&#x179;" horiz-adv-x="359" 
d="M18 0v122l157 436h-152v142h319v-122l-157 -436h157v-142h-324zM128 728l72 118l137 -41l-106 -77h-103z" />
    <glyph glyph-name="zacute" unicode="&#x17a;" horiz-adv-x="319" 
d="M110 572l77 138l123 -43l-111 -95h-89zM12 0v105l138 314h-135v122h293v-105l-139 -313h139v-123h-296z" />
    <glyph glyph-name="Zdotaccent" unicode="&#x17b;" horiz-adv-x="359" 
d="M122 730v110h122v-110h-122zM18 0v122l157 436h-152v142h319v-122l-157 -436h157v-142h-324z" />
    <glyph glyph-name="zdotaccent" unicode="&#x17c;" horiz-adv-x="319" 
d="M12 0v105l138 314h-135v122h293v-105l-139 -313h139v-123h-296zM102 574v115h120v-115h-120z" />
    <glyph glyph-name="Zcaron" unicode="&#x17d;" horiz-adv-x="359" 
d="M315 839l-74 -111h-114l-74 111h91l41 -41l40 41h90zM18 0v122l157 436h-152v142h319v-122l-157 -436h157v-142h-324z" />
    <glyph glyph-name="zcaron" unicode="&#x17e;" horiz-adv-x="319" 
d="M293 700l-78 -128h-105l-78 128h85l46 -50l46 50h84zM12 0v105l138 314h-135v122h293v-105l-139 -313h139v-123h-296z" />
    <glyph glyph-name="Aringacute" unicode="&#x1fa;" horiz-adv-x="431" 
d="M-4 0l133 698q-9 18 -9 41q0 39 27.5 64.5t68.5 25.5q42 0 69 -25.5t27 -64.5q0 -25 -10 -42l133 -697h-150l-19 126h-105l-19 -126h-146zM164 844l64 101l141 -39l-100 -62h-105zM180 254h67l-33 220zM216 694q19 0 31.5 12.5t12.5 31.5t-12.5 31.5t-31.5 12.5
t-31.5 -12.5t-12.5 -31.5t12.5 -31.5t31.5 -12.5z" />
    <glyph glyph-name="aringacute" unicode="&#x1fb;" horiz-adv-x="376" 
d="M136 780l72 108l126 -35l-104 -73h-94zM118 -10q-48 0 -78 43t-30 118v17q0 87 34 129t91 42q39 0 74 -20v21q0 75 -72 75q-45 0 -99 -27v136q61 25 131 25q89 0 135 -46q50 -50 50 -150v-353h-145v51q-34 -61 -91 -61zM176 100q14 0 24 12t10 35v83q-18 9 -32 9
q-34 0 -34 -61v-20q0 -58 32 -58zM188 573q-39 0 -66 27t-27 68q0 39 27 66t66 27t66 -26.5t27 -67.5q0 -40 -27 -67t-66 -27zM188 621q18 0 29.5 13t11.5 33t-11.5 33.5t-29.5 13.5t-29.5 -13.5t-11.5 -33.5t11.5 -33t29.5 -13z" />
    <glyph glyph-name="AEacute" unicode="&#x1fc;" horiz-adv-x="588" 
d="M272 728l72 118l137 -41l-106 -77h-103zM-7 0l168 700h406v-142h-154v-136h137v-140h-137v-139h157v-143h-307v126h-98l-26 -126h-146zM189 254h74v299h-11z" />
    <glyph glyph-name="aeacute" unicode="&#x1fd;" horiz-adv-x="569" 
d="M230 572l77 138l123 -43l-111 -95h-89zM136 -10q-56 0 -91 43t-35 120v17q0 86 34 127.5t91 41.5q39 0 74 -20v21q0 75 -72 75q-43 0 -99 -27v136q61 25 131 25q76 0 118 -50q40 54 102 54q77 0 122 -70.5t45 -201.5v-73h-208q10 -87 79 -87q48 0 107 39l9 -130
q-67 -42 -137 -42q-100 0 -151 92q-18 -41 -50 -65.5t-69 -24.5zM346 308h75q0 118 -36 118t-39 -118zM180 100q14 0 27 14.5t20 40.5q-9 38 -10 72q-22 12 -39 12q-34 0 -34 -61v-20q0 -58 36 -58z" />
    <glyph glyph-name="Oslashacute" unicode="&#x1fe;" horiz-adv-x="449" 
d="M354 705h71l-42 -93q48 -90 48 -240v-44q0 -167 -54.5 -254t-151.5 -87q-66 0 -114 42l-15 -34h-72l42 93q-48 91 -48 240v44q0 168 55 254.5t152 86.5q65 0 113 -42zM168 327v-39l100 243q-13 47 -43 47q-19 0 -30.5 -15.5t-19 -62t-7.5 -126.5v-47zM225 123
q19 0 30.5 16t18.5 62t7 126v47q0 25 -1 37l-99 -242q13 -46 44 -46zM169 734l72 118l137 -41l-106 -77h-103z" />
    <glyph glyph-name="oslashacute" unicode="&#x1ff;" 
d="M322 544h70l-45 -81q38 -68 38 -172v-42q0 -126 -50 -194t-134 -68q-61 0 -105 38l-16 -29h-69l44 80q-38 68 -38 173v42q0 126 50.5 194t134.5 68q60 0 104 -39zM149 578l77 138l123 -43l-111 -95h-89zM157 246v-5l77 153q-10 34 -33 34q-44 0 -44 -134v-48zM201 112
q44 0 44 134v48v4l-77 -153q10 -33 33 -33z" />
    <glyph glyph-name="Scommaaccent" unicode="&#x218;" horiz-adv-x="359" 
d="M119 -226l-8 42q60 9 61 47h-56v97h117v-82q0 -91 -114 -104zM162 -8q-78 0 -141 36v149q72 -42 123 -42q57 0 57 52v1q0 33 -61 93q-73 69 -101 115t-28 112v3q0 89 53 143t135 54q67 0 124 -25v-151q-59 34 -109 34q-24 0 -38.5 -13.5t-14.5 -35.5v-1q0 -18 12.5 -36.5
t48.5 -55.5q75 -73 102 -119.5t27 -111.5v-4q0 -87 -55 -142t-134 -55z" />
    <glyph glyph-name="scommaaccent" unicode="&#x219;" horiz-adv-x="308" 
d="M95 -226l-8 42q60 9 61 47h-56v97h117v-82q0 -91 -114 -104zM141 -11q-66 0 -126 30v139q72 -40 111 -40q34 0 34 31v1q0 13 -9.5 26t-40.5 41q-51 45 -76 83t-25 95v2q0 71 45 112.5t118 41.5q54 0 105 -18v-140q-55 29 -94 29q-34 0 -34 -27v-1q0 -11 9.5 -22.5
t42.5 -42.5q52 -46 75.5 -83.5t23.5 -93.5v-2q0 -72 -45 -116.5t-114 -44.5z" />
    <glyph glyph-name="schwa" unicode="&#x259;" horiz-adv-x="381" 
d="M165 553q90 0 145 -69t55 -197v-32q0 -126 -50.5 -196.5t-131.5 -70.5q-79 0 -124.5 70.5t-45.5 201.5v73h208q-10 87 -79 87q-48 0 -107 -39l-9 130q67 42 139 42zM223 233h-75q0 -118 36 -118t39 118z" />
    <glyph glyph-name="circumflex" unicode="&#x2c6;" horiz-adv-x="500" 
d="M119 572l79 128h104l79 -128h-86l-46 51l-46 -51h-84z" />
    <glyph glyph-name="caron" unicode="&#x2c7;" horiz-adv-x="500" 
d="M381 700l-78 -128h-105l-78 128h85l46 -50l46 50h84z" />
    <glyph glyph-name="breve" unicode="&#x2d8;" horiz-adv-x="500" 
d="M250 568q-53 0 -86.5 30t-38.5 89h80q6 -43 45 -43t45 43h80q-4 -59 -38 -89t-87 -30z" />
    <glyph glyph-name="dotaccent" unicode="&#x2d9;" horiz-adv-x="500" 
d="M190 574v115h120v-115h-120z" />
    <glyph glyph-name="ring" unicode="&#x2da;" horiz-adv-x="500" 
d="M250 567q-39 0 -66 27t-27 68q0 39 27 66t66 27t66 -26.5t27 -67.5q0 -40 -27 -67t-66 -27zM250 615q18 0 29.5 13t11.5 33t-11.5 33.5t-29.5 13.5t-29.5 -13.5t-11.5 -33.5t11.5 -33t29.5 -13z" />
    <glyph glyph-name="ogonek" unicode="&#x2db;" horiz-adv-x="500" 
d="M331 -66v-77q-24 -4 -54 -4q-111 0 -111 67q0 48 64 103l85 -7q-29 -37 -29 -56q0 -13 9.5 -18.5t35.5 -7.5z" />
    <glyph glyph-name="tilde" unicode="&#x2dc;" horiz-adv-x="500" 
d="M319 570q-20 0 -64 17q-39 15 -49 15q-12 0 -17.5 -7.5t-10.5 -28.5l-70 14q10 115 73 115q17 0 64 -18q39 -15 49 -15q12 0 17.5 8t10.5 28l70 -14q-10 -114 -73 -114z" />
    <glyph glyph-name="hungarumlaut" unicode="&#x2dd;" horiz-adv-x="500" 
d="M99 572l77 138l97 -37l21 37l106 -40l-104 -98h-79l43 77l-82 -77h-79z" />
    <glyph glyph-name="commaaccent" unicode="&#x326;" horiz-adv-x="500" 
d="M197 -220l-8 42q60 9 61 47h-56v97h117v-82q0 -91 -114 -104z" />
    <glyph glyph-name="Wgrave" unicode="&#x1e80;" horiz-adv-x="630" 
d="M369 728h-103l-105 77l136 41zM108 -2l-109 702h156l44 -402l53 402h129l52 -402l44 402h153l-108 -702h-157l-50 353l-51 -353h-156z" />
    <glyph glyph-name="wgrave" unicode="&#x1e81;" horiz-adv-x="549" 
d="M100 -2l-97 543h146l34 -282l37 282h112l36 -282l35 282h143l-96 -543h-132l-43 260l-43 -260h-132zM238 572l-111 95l122 43l78 -138h-89z" />
    <glyph glyph-name="Wacute" unicode="&#x1e82;" horiz-adv-x="630" 
d="M259 728l72 118l137 -41l-106 -77h-103zM108 -2l-109 702h156l44 -402l53 402h129l52 -402l44 402h153l-108 -702h-157l-50 353l-51 -353h-156z" />
    <glyph glyph-name="wacute" unicode="&#x1e83;" horiz-adv-x="549" 
d="M223 572l77 138l123 -43l-111 -95h-89zM100 -2l-97 543h146l34 -282l37 282h112l36 -282l35 282h143l-96 -543h-132l-43 260l-43 -260h-132z" />
    <glyph glyph-name="Wdieresis" unicode="&#x1e84;" horiz-adv-x="630" 
d="M331 730v110h117v-110h-117zM181 730v110h116v-110h-116zM108 -2l-109 702h156l44 -402l53 402h129l52 -402l44 402h153l-108 -702h-157l-50 353l-51 -353h-156z" />
    <glyph glyph-name="wdieresis" unicode="&#x1e85;" horiz-adv-x="549" 
d="M289 574v115h114v-115h-114zM146 574v115h113v-115h-113zM100 -2l-97 543h146l34 -282l37 282h112l36 -282l35 282h143l-96 -543h-132l-43 260l-43 -260h-132z" />
    <glyph glyph-name="Ygrave" unicode="&#x1ef2;" horiz-adv-x="409" 
d="M130 0v261l-134 439h154l57 -246l56 246h150l-133 -439v-261h-150zM260 726h-103l-105 77l136 41z" />
    <glyph glyph-name="ygrave" unicode="&#x1ef3;" horiz-adv-x="383" 
d="M192 246l46 295h144l-155 -671h-143l34 144l-116 527h145zM155 570l-111 95l122 43l78 -138h-89z" />
    <glyph glyph-name="enspace" unicode="&#x2002;" horiz-adv-x="500" 
 />
    <glyph glyph-name="emspace" unicode="&#x2003;" horiz-adv-x="1000" 
 />
    <glyph glyph-name="threeperemspace" unicode="&#x2004;" horiz-adv-x="333" 
 />
    <glyph glyph-name="fourperemspace" unicode="&#x2005;" horiz-adv-x="250" 
 />
    <glyph glyph-name="thinspace" unicode="&#x2009;" horiz-adv-x="117" 
 />
    <glyph glyph-name="hairspace" unicode="&#x200a;" horiz-adv-x="63" 
 />
    <glyph glyph-name="endash" unicode="&#x2013;" horiz-adv-x="448" 
d="M27 244v137h394v-137h-394z" />
    <glyph glyph-name="emdash" unicode="&#x2014;" horiz-adv-x="672" 
d="M27 244v137h618v-137h-618z" />
    <glyph glyph-name="quoteleft" unicode="&#x2018;" horiz-adv-x="219" 
d="M28 395v131q0 155 161 178l12 -57q-90 -21 -90 -91h77v-161h-160z" />
    <glyph glyph-name="quoteright" unicode="&#x2019;" horiz-adv-x="219" 
d="M30 391l-12 57q90 21 90 91h-77v161h160v-131q0 -155 -161 -178z" />
    <glyph glyph-name="quotesinglbase" unicode="&#x201a;" horiz-adv-x="231" 
d="M32 -148l-13 57q52 11 74.5 36t21.5 55h-76v162h160v-132q0 -154 -167 -178z" />
    <glyph glyph-name="quotedblleft" unicode="&#x201c;" horiz-adv-x="410" 
d="M224 395v131q0 155 156 178l13 -57q-90 -21 -90 -91h76v-161h-155zM28 395v131q0 155 156 178l13 -57q-90 -21 -90 -91h76v-161h-155z" />
    <glyph glyph-name="quotedblright" unicode="&#x201d;" horiz-adv-x="410" 
d="M226 391l-12 57q47 11 68.5 36t20.5 55h-76v161h156v-131q0 -155 -157 -178zM30 391l-12 57q47 11 68.5 36t20.5 55h-76v161h156v-131q0 -155 -157 -178z" />
    <glyph glyph-name="quotedblbase" unicode="&#x201e;" horiz-adv-x="428" 
d="M233 -148l-13 57q51 11 73.5 36t22.5 55h-76v162h155v-132q0 -154 -162 -178zM32 -148l-13 57q51 11 73.5 36t22.5 55h-76v162h155v-132q0 -154 -162 -178z" />
    <glyph glyph-name="dagger" unicode="&#x2020;" horiz-adv-x="259" 
d="M82 238l14 262l-77 -9v98l76 -10l-17 121h103l-16 -121l75 10v-98l-76 9l14 -262h-96z" />
    <glyph glyph-name="daggerdbl" unicode="&#x2021;" horiz-adv-x="273" 
d="M85 0l17 121l-76 -9v98l78 -10l-17 150l17 150l-78 -9v98l76 -10l-17 121h103l-16 -121l75 10v-98l-77 9l16 -150l-16 -150l77 10v-98l-75 9l16 -121h-103z" />
    <glyph glyph-name="bullet" unicode="&#x2022;" horiz-adv-x="364" 
d="M182 183q-54 0 -87.5 42t-33.5 119v20q0 78 33.5 119.5t87.5 41.5t87.5 -41.5t33.5 -119.5v-20q0 -77 -33.5 -119t-87.5 -42z" />
    <glyph glyph-name="ellipsis" unicode="&#x2026;" horiz-adv-x="685" 
d="M493 0v162h160v-162h-160zM263 0v162h160v-162h-160zM33 0v162h160v-162h-160z" />
    <glyph glyph-name="perthousand" unicode="&#x2030;" horiz-adv-x="836" 
d="M136 404q27 0 27 91v32q0 92 -27 92q-14 0 -20 -20t-6 -72v-32q0 -52 6 -71.5t20 -19.5zM136 316q-54 0 -85 48t-31 138v18q0 91 31 139t85 48t85.5 -48t31.5 -139v-18q0 -89 -32 -137.5t-85 -48.5zM495 700l-171 -357l-159 -343h-80l170 357l160 343h80zM440 82
q27 0 27 91v32q0 92 -27 92q-14 0 -20 -20t-6 -72v-32q0 -52 6 -71.5t20 -19.5zM440 -7q-54 0 -85 48.5t-31 138.5v18q0 89 32 138t84 49q54 0 85.5 -48t31.5 -139v-18q0 -90 -31.5 -138.5t-85.5 -48.5zM700 82q14 0 20 19.5t6 71.5v32q0 52 -6 72t-20 20q-27 0 -27 -92v-32
q0 -91 27 -91zM700 -7q-54 0 -85.5 48.5t-31.5 138.5v18q0 89 32 138t85 49q54 0 85 -48t31 -139v-18q0 -90 -31 -138.5t-85 -48.5z" />
    <glyph glyph-name="guilsinglleft" unicode="&#x2039;" horiz-adv-x="252" 
d="M144 44l-128 216v21l128 216l92 -43l-85 -182l87 -183z" />
    <glyph glyph-name="guilsinglright" unicode="&#x203a;" horiz-adv-x="252" 
d="M108 497l128 -216v-21l-128 -216l-92 44l85 182l-87 183z" />
    <glyph glyph-name="Euro" unicode="&#x20ac;" horiz-adv-x="396" 
d="M375 691v-149q-44 25 -77 25q-60 0 -82 -85h104v-101h-114v-3v-55h114v-101h-106q19 -88 84 -88q34 0 80 25v-142q-45 -27 -106 -27q-78 0 -134 58.5t-73 172.5h-53v102h46v57v1h-46v102h54q20 113 79 170t134 57q55 0 96 -19z" />
    <glyph glyph-name="published" unicode="&#x2117;" horiz-adv-x="515" 
d="M258 -13q-108 0 -174 93.5t-66 252.5v34q0 159 66 252.5t174 93.5t173.5 -93.5t65.5 -252.5v-34q0 -158 -66 -252t-173 -94zM258 24q94 0 147.5 83.5t53.5 224.5v36q0 142 -53.5 225.5t-147.5 83.5q-95 0 -148.5 -83.5t-53.5 -225.5v-36q0 -141 54 -224.5t148 -83.5z
M167 153v403h80q63 0 99.5 -34t36.5 -103v-6q0 -68 -37 -102t-90 -37h-2v-121h-87zM254 351h1q41 2 41 60v7q0 61 -40 61h-2v-128z" />
    <glyph glyph-name="servicemark" unicode="&#x2120;" horiz-adv-x="442" 
d="M197 385v315h72l37 -97l37 97h73v-315h-71v168l-38 -101h-2l-37 101v-168h-71zM83 382q-39 0 -68 16v72q36 -20 60 -20t24 20q0 15 -27 38q-35 31 -48 51t-13 53q0 40 24.5 65.5t63.5 25.5q37 0 62 -11v-73q-28 16 -53 16q-23 0 -23 -19q0 -14 27 -38q35 -31 48 -52
t13 -52q0 -42 -26.5 -67t-63.5 -25z" />
    <glyph glyph-name="trademark" unicode="&#x2122;" horiz-adv-x="439" 
d="M194 385v315h73l37 -97l37 97h72v-315h-70v168l-39 -101h-1l-38 101v-168h-71zM54 385v244h-43v71h160v-71h-43v-244h-74z" />
    <glyph glyph-name="minus" unicode="&#x2212;" horiz-adv-x="408" 
d="M386 283h-364v138h364v-138z" />
    <glyph glyph-name="Q.alt" horiz-adv-x="449" 
d="M289 -74l-36 65q-15 -3 -30 -3q-95 0 -150 87.5t-55 253.5v43q0 168 55 254.5t152 86.5t151.5 -86.5t54.5 -254.5v-43q0 -171 -62 -263l79 -140h-159zM225 124q18 0 29 15t17.5 60.5t6.5 125.5v49q0 79 -6.5 124.5t-17.5 61t-29 15.5t-29 -15.5t-18 -61t-7 -124.5v-49
q0 -80 7 -125.5t18 -60.5t29 -15z" />
    <glyph glyph-name="a.alt" horiz-adv-x="411" 
d="M140 -11q-120 0 -120 255v53q0 255 120 255q35 0 57 -19t42 -54v62h146v-541h-146v64q-20 -36 -42 -55.5t-57 -19.5zM202 122q38 0 38 120v57q0 120 -38 120q-36 0 -36 -120v-57q0 -120 36 -120z" />
    <glyph glyph-name="aacute.alt" horiz-adv-x="411" 
d="M163 578l77 138l123 -43l-111 -95h-89zM140 -11q-120 0 -120 255v53q0 255 120 255q35 0 57 -19t42 -54v62h146v-541h-146v64q-20 -36 -42 -55.5t-57 -19.5zM202 122q38 0 38 120v57q0 120 -38 120q-36 0 -36 -120v-57q0 -120 36 -120z" />
    <glyph glyph-name="abreve.alt" horiz-adv-x="411" 
d="M140 -11q-120 0 -120 255v53q0 255 120 255q35 0 57 -19t42 -54v62h146v-541h-146v64q-20 -36 -42 -55.5t-57 -19.5zM202 122q38 0 38 120v57q0 120 -38 120q-36 0 -36 -120v-57q0 -120 36 -120zM215 574q-53 0 -86.5 30t-38.5 89h80q6 -43 45 -43t45 43h80
q-4 -59 -38 -89t-87 -30z" />
    <glyph glyph-name="acircumflex.alt" horiz-adv-x="411" 
d="M84 578l79 128h104l79 -128h-86l-46 51l-46 -51h-84zM140 -11q-120 0 -120 255v53q0 255 120 255q35 0 57 -19t42 -54v62h146v-541h-146v64q-20 -36 -42 -55.5t-57 -19.5zM202 122q38 0 38 120v57q0 120 -38 120q-36 0 -36 -120v-57q0 -120 36 -120z" />
    <glyph glyph-name="adieresis.alt" horiz-adv-x="411" 
d="M230 580v115h114v-115h-114zM87 580v115h113v-115h-113zM140 -11q-120 0 -120 255v53q0 255 120 255q35 0 57 -19t42 -54v62h146v-541h-146v64q-20 -36 -42 -55.5t-57 -19.5zM202 122q38 0 38 120v57q0 120 -38 120q-36 0 -36 -120v-57q0 -120 36 -120z" />
    <glyph glyph-name="agrave.alt" horiz-adv-x="411" 
d="M140 -11q-120 0 -120 255v53q0 255 120 255q35 0 57 -19t42 -54v62h146v-541h-146v64q-20 -36 -42 -55.5t-57 -19.5zM202 122q38 0 38 120v57q0 120 -38 120q-36 0 -36 -120v-57q0 -120 36 -120zM178 578l-111 95l122 43l78 -138h-89z" />
    <glyph glyph-name="amacron.alt" horiz-adv-x="411" 
d="M140 -11q-120 0 -120 255v53q0 255 120 255q35 0 57 -19t42 -54v62h146v-541h-146v64q-20 -36 -42 -55.5t-57 -19.5zM202 122q38 0 38 120v57q0 120 -38 120q-36 0 -36 -120v-57q0 -120 36 -120zM91 581v90h248v-90h-248z" />
    <glyph glyph-name="aogonek.alt" horiz-adv-x="411" 
d="M393 -66v-77q-24 -4 -54 -4q-111 0 -111 67q0 41 39 80h-28v64q-20 -36 -42 -55.5t-57 -19.5q-120 0 -120 255v53q0 255 120 255q35 0 57 -19t42 -54v62h146v-541h-20q-17 -24 -17 -40q0 -13 9.5 -18.5t35.5 -7.5zM202 122q38 0 38 120v57q0 120 -38 120q-36 0 -36 -120
v-57q0 -120 36 -120z" />
    <glyph glyph-name="aring.alt" horiz-adv-x="411" 
d="M215 573q-39 0 -66 27t-27 68q0 39 27 66t66 27t66 -26.5t27 -67.5q0 -40 -27 -67t-66 -27zM215 621q18 0 29.5 13t11.5 33t-11.5 33.5t-29.5 13.5t-29.5 -13.5t-11.5 -33.5t11.5 -33t29.5 -13zM140 -11q-120 0 -120 255v53q0 255 120 255q35 0 57 -19t42 -54v62h146
v-541h-146v64q-20 -36 -42 -55.5t-57 -19.5zM202 122q38 0 38 120v57q0 120 -38 120q-36 0 -36 -120v-57q0 -120 36 -120z" />
    <glyph glyph-name="aring.alt2" horiz-adv-x="376" 
d="M118 -10q-47 0 -77.5 43t-30.5 118v17q0 87 34 129t91 42q39 0 74 -20v21q0 75 -72 75q-43 0 -99 -27v136q35 15 74 21q-17 22 -17 54q0 39 27 66t66 27t66 -27t27 -67q0 -36 -26 -64q26 -10 49 -31q50 -50 50 -150v-353h-145v51q-34 -61 -91 -61zM176 100q14 0 24 12
t10 35v83q-18 9 -32 9q-34 0 -34 -61v-20q0 -58 32 -58zM147 598q0 -20 11.5 -33.5t29.5 -13.5t29.5 13.5t11.5 33.5t-11.5 33t-29.5 13t-29.5 -13t-11.5 -33z" />
    <glyph glyph-name="aringacute.alt" horiz-adv-x="411" 
d="M163 780l72 108l126 -35l-104 -73h-94zM215 573q-39 0 -66 27t-27 68q0 39 27 66t66 27t66 -26.5t27 -67.5q0 -40 -27 -67t-66 -27zM215 621q18 0 29.5 13t11.5 33t-11.5 33.5t-29.5 13.5t-29.5 -13.5t-11.5 -33.5t11.5 -33t29.5 -13zM140 -11q-120 0 -120 255v53
q0 255 120 255q35 0 57 -19t42 -54v62h146v-541h-146v64q-20 -36 -42 -55.5t-57 -19.5zM202 122q38 0 38 120v57q0 120 -38 120q-36 0 -36 -120v-57q0 -120 36 -120z" />
    <glyph glyph-name="aringacute.alt2" horiz-adv-x="376" 
d="M136 712l72 108l126 -35l-104 -73h-94zM118 -10q-47 0 -77.5 43t-30.5 118v17q0 87 34 129t91 42q39 0 74 -20v21q0 75 -72 75q-43 0 -99 -27v136q35 15 74 21q-17 22 -17 54q0 39 27 66t66 27t66 -27t27 -67q0 -36 -26 -64q26 -10 49 -31q50 -50 50 -150v-353h-145v51
q-34 -61 -91 -61zM176 100q14 0 24 12t10 35v83q-18 9 -32 9q-34 0 -34 -61v-20q0 -58 32 -58zM147 598q0 -20 11.5 -33.5t29.5 -13.5t29.5 13.5t11.5 33.5t-11.5 33t-29.5 13t-29.5 -13t-11.5 -33z" />
    <glyph glyph-name="atilde.alt" horiz-adv-x="411" 
d="M140 -11q-120 0 -120 255v53q0 255 120 255q35 0 57 -19t42 -54v62h146v-541h-146v64q-20 -36 -42 -55.5t-57 -19.5zM202 122q38 0 38 120v57q0 120 -38 120q-36 0 -36 -120v-57q0 -120 36 -120zM287 576q-20 0 -64 17q-39 15 -49 15q-12 0 -17.5 -7.5t-10.5 -28.5
l-70 14q10 115 73 115q17 0 64 -18q39 -15 49 -15q12 0 17.5 8t10.5 28l70 -14q-10 -114 -73 -114z" />
    <glyph glyph-name="three.alt" horiz-adv-x="354" 
d="M135 -11q-64 0 -119 21v141q53 -20 93 -20t62 21t22 56v3q0 81 -124 85v125q61 4 92 26.5t31 59.5v3q0 27 -19 43t-50 16q-41 0 -99 -25v139q65 28 129 28q85 0 135 -46t50 -129v-6q0 -57 -28.5 -100.5t-73.5 -64.5q105 -46 105 -169v-6q0 -93 -57 -147t-149 -54z" />
    <glyph glyph-name="registered.alt" horiz-adv-x="515" 
d="M258 -13q-108 0 -174 93.5t-66 252.5v34q0 159 66 252.5t174 93.5t173.5 -93.5t65.5 -252.5v-34q0 -158 -66 -252t-173 -94zM258 24q94 0 147.5 83.5t53.5 224.5v36q0 142 -53.5 225.5t-147.5 83.5q-95 0 -148.5 -83.5t-53.5 -225.5v-36q0 -141 54 -224.5t148 -83.5z
M154 154v403h88q64 0 98 -34t34 -97v-6q0 -72 -47 -107l54 -159h-93l-40 131h-7v-131h-87zM241 358h3q42 0 42 57v8q0 56 -43 56h-2v-121z" />
    <glyph glyph-name="NUL" horiz-adv-x="0" 
 />
    <glyph glyph-name="hfjslug" horiz-adv-x="694" 
d="M644 -200h-208l-8 14h-163l-8 -14h-207v303q14 0 23 9.5t9 22.5t-9.5 22.5t-22.5 9.5v554h100l30 79h334l29 -79h101v-921zM400 563v-172h15v78h38v14h-38v66h43v14h-58zM184 563v-172h15v79h47v-79h15v172h-15v-79h-47v79h-15zM460 394q10 -4 21 -4q31 0 31 36v137h-16
v-137q0 -22 -16 -22q-8 0 -20 5v-15zM371 465l-13 3q-4 -18 -8 -30h-1l-16 31q23 21 23 42q0 12 -7 21.5t-20 9.5q-12 0 -20 -9.5t-8 -21.5q0 -13 14 -39q-23 -18 -23 -47q0 -16 8 -26.5t21 -10.5q19 0 29 24h1l12 -24l12 6l-17 32q6 14 13 39zM523 323v-46h8v12l8 8l15 -20
h10l-20 26l18 20h-10l-20 -24h-1v24h-8zM488 292l10 -15h9l-12 17q10 4 10 14q0 15 -17 15h-20v-46h8v15h12zM426 276q10 0 17 7t7 17q0 9 -7 16.5t-17 7.5t-17 -7.5t-7 -16.5q0 -10 7 -17t17 -7zM370 301l-13 22h-9l18 -29v-17h8v17l18 29h-9zM193 323v-46h34v7h-26v13h23
v7h-23v12h26v7h-34zM132 323v-46h8v32l25 -32h7v46h-8v-32l-25 32h-7zM241 323l14 -47h8l11 34h1l11 -34h8l14 47h-8l-10 -35h-1l-11 35h-7l-11 -35h-1l-10 35h-8zM327 479q-12 22 -12 32q0 19 14 19q13 0 13 -19q0 -15 -15 -32zM342 423q-8 -21 -20 -21q-16 0 -16 25
q0 19 16 35zM487 299h-11v17h11q10 0 10 -8q0 -9 -10 -9zM426 283q-16 0 -16 17q0 6 4.5 11.5t11.5 5.5t11.5 -5.5t4.5 -11.5q0 -17 -16 -17z" />
    <glyph glyph-name="i.dot" horiz-adv-x="200" 
d="M26 582v128h148v-128h-148zM27 0v541h146v-541h-146z" />
    <glyph glyph-name="caron.alt" horiz-adv-x="500" 
d="M188 563l9 147h85v-1l-39 -146h-55z" />
    <glyph glyph-name="acute.cap" horiz-adv-x="500" 
d="M148 728l72 118l137 -41l-106 -77h-103z" />
    <glyph glyph-name="hungarumlaut.cap" horiz-adv-x="500" 
d="M253 728l39 65l-79 -65h-93l72 118l111 -36l22 36l119 -38l-99 -80h-92z" />
    <glyph glyph-name="grave.cap" horiz-adv-x="500" 
d="M351 728h-103l-105 77l136 41z" />
    <glyph glyph-name="circumflex.cap" horiz-adv-x="500" 
d="M119 728l74 111h114l74 -111h-91l-41 41l-40 -41h-90z" />
    <glyph glyph-name="caron.cap" horiz-adv-x="500" 
d="M381 839l-74 -111h-114l-74 111h91l41 -41l40 41h90z" />
    <glyph glyph-name="breve.cap" horiz-adv-x="500" 
d="M250 724q-54 0 -86.5 27t-34.5 81h80q6 -33 41 -33q34 0 42 33h80q-3 -54 -35.5 -81t-86.5 -27z" />
    <glyph glyph-name="tilde.cap" horiz-adv-x="500" 
d="M319 726q-21 0 -63 17q-39 15 -50 15t-16.5 -7.5t-10.5 -28.5l-72 15q10 116 74 116q18 0 65 -18q39 -15 48 -15q19 0 27 36l72 -14q-10 -116 -74 -116z" />
    <glyph glyph-name="macron.cap" horiz-adv-x="500" 
d="M121 731v92h259v-92h-259z" />
    <glyph glyph-name="dieresis.cap" horiz-adv-x="500" 
d="M267 730v110h117v-110h-117zM117 730v110h116v-110h-116z" />
    <glyph glyph-name="dotaccent.cap" horiz-adv-x="500" 
d="M189 730v110h122v-110h-122z" />
    <glyph glyph-name="ring.cap" horiz-adv-x="500" 
d="M250 724q-41 0 -68.5 25.5t-27.5 65.5q0 39 27.5 65t68.5 26q42 0 69 -25.5t27 -65.5t-27 -65.5t-69 -25.5zM250 771q19 0 31.5 12.5t12.5 31.5t-12.5 31.5t-31.5 12.5t-31.5 -12.5t-12.5 -31.5t12.5 -31.5t31.5 -12.5z" />
    <glyph glyph-name="CR" horiz-adv-x="150" 
 />
    </font>
</defs>
</svg>
